<?xml version="1.0" standalone="no"?>
<!DOCTYPE svg PUBLIC "-//W3C//DTD SVG 1.1//EN" "http://www.w3.org/Graphics/SVG/1.1/DTD/svg11.dtd" >
<svg xmlns="http://www.w3.org/2000/svg">
<metadata>Generated by IcoMoon</metadata>
<defs>
<font id="Line-Awesome" horiz-adv-x="1024">
<font-face units-per-em="1024" ascent="896" descent="-128" />
<missing-glyph horiz-adv-x="1024" />
<glyph unicode="&#x20;" horiz-adv-x="400" d="" />
<glyph unicode="&#xf100;" glyph-name="500px" d="M838.432 485.408c106.4 0 152.352-87.201 152.385-161.953 0-74.752-51.584-163.455-152.352-163.455-100.77 0-166.85 97.535-173.312 97.535-6.465 0-62.465-97.535-173.697-97.535-95.902 0-141.055 88.703-141.055 97.535 0-10.463-37.504-97.535-154.369-97.535-143.455 0-162.814 112.801-162.814 136.928h90.271c0-27.328 26.592-66.721 72.543-66.721 45.92 0 78.977 46.625 78.977 89.217s-29.824 80.385-78.977 80.385c-49.184 0-67.711-34.176-67.711-34.176h-80.992l42.305 242.368h250.272v-72.385h-184.992c-11.297-65.92-16.928-102.879-16.928-102.879 6.432 0 16.928 34.561 91.871 34.561 92.705 0 117.281-82.785 120.512-82.785 3.232 0 33.857 100.896 141.057 100.896s169.664-100.896 173.695-100.896c4.033 0 66.912 100.896 173.312 100.896zM611.328 321.952v0 0.064h-0.031c-0.705 0.865-62.273 75.617-119.361 75.617-57.375 0-68-57.186-68-75.617v0-0.064c0-18.432 10.625-75.615 68-75.615 57.088 0 118.656 74.752 119.361 75.615h0.031zM907.168 321.952v0c-0.031 18.465-10.623 75.648-68 75.648-57.088 0-118.656-74.752-119.359-75.615h-0.033l0.033-0.033-0.033-0.031h0.033c0.703-0.863 62.271-75.615 119.359-75.615 57.377 0 68 57.215 68 75.646v0z" />
<glyph unicode="&#xf101;" glyph-name="adjust" d="M512 768c211.7 0 384-172.301 384-384s-172.301-384-384-384-384 172.301-384 384 172.301 384 384 384zM512 704c-177.109 0-320-142.891-320-320s142.891-320 320-320v640z" />
<glyph unicode="&#xf102;" glyph-name="adn" d="M512 768c211.7 0 384-172.301 384-384s-172.301-384-384-384-384 172.301-384 384 172.301 384 384 384zM512 704c-177.109 0-320-142.891-320-320s142.891-320 320-320 320 142.891 320 320-142.891 320-320 320zM512 578l212-317h-51l-50 74h-222l-49-74h-51zM512 501l-91-136h182z" />
<glyph unicode="&#xf103;" glyph-name="align-center" d="M96 672h832v-64h-832v64zM224 544h576v-64h-576v64zM96 416h832v-64h-832v64zM224 288h576v-64h-576v64zM96 160h832v-64h-832v64z" />
<glyph unicode="&#xf104;" glyph-name="align-justify" d="M96 672h832v-64h-832v64zM96 544h832v-64h-832v64zM96 416h832v-64h-832v64zM96 288h832v-64h-832v64zM96 160h832v-64h-832v64z" />
<glyph unicode="&#xf105;" glyph-name="align-left" d="M96 672h832v-64h-832v64zM96 544h576v-64h-576v64zM96 416h832v-64h-832v64zM96 288h576v-64h-576v64zM96 160h832v-64h-832v64z" />
<glyph unicode="&#xf106;" glyph-name="align-right" d="M96 672h832v-64h-832v64zM352 544h576v-64h-576v64zM96 416h832v-64h-832v64zM352 288h576v-64h-576v64zM96 160h832v-64h-832v64z" />
<glyph unicode="&#xf107;" glyph-name="amazon" d="M646 896c53.855 0 124.504-14.232 167-55 53.855-50.305 49-117.912 49-191v-172c0-51.871 20.744-75.031 41-103 7.072-10.080 8.992-21.641 0-29-22.592-18.977-62.889-54.32-85-74v1c-7.328-6.561-17.744-7.416-26-3-36.768 30.592-43.904 44.912-64 74-60.768-61.92-103.279-81-182-81-93.217 0-166 57.992-166 173 0 89.889 48.623 151.016 118 181 60.064 26.367 143.809 30.801 208 38v15c0 26.367 2.553 57.248-13 80-13.473 20.385-39.217 29-62 29-42.207 0-79.783-22.137-89-67-1.92-9.984-9.951-19.488-20-20l-107 11c-9.057 2.049-18.623 9.176-16 23 24.641 130.176 141.656 170 247 170zM676 566c-69.846-4.578-134-28.512-134-111 0-47.904 24.535-80 67-80 31.072 0 59.4 18.832 77 50 21.729 38.367 20 73.863 20 117v24c-10.012 0-20.021 0.654-30 0zM982 308c28.039 0.389 51.217-5.096 56-11 9.633-11.936-2.961-93.641-50-133-7.232-6.049-14.199-2.969-11 5 10.561 26.465 34.232 85.633 23 100s-73.744 6.393-102 3c-8.576-1.023-9.713 6.561-2 12 25.104 17.633 57.961 23.611 86 24zM245 293c1.949 0.258 4.527-0.561 7-2 112.832-65.664 251.872-105 396-105 97.217 0 204.664 20.271 303 62 14.848 6.305 27.496-10.279 13-21-87.713-64.736-215.496-99-325-99-153.473 0-291.392 56.568-396 151-6.168 5.568-3.848 13.229 2 14z" />
<glyph unicode="&#xf108;" glyph-name="ambulance" d="M544 800c35.359 0 64-28.641 64-64v-32h143l9-11 192-224 8-9v-364h-101c-14.307-55.035-63.697-96-123-96s-108.693 40.965-123 96h-266c-14.307-55.035-63.697-96-123-96s-108.693 40.965-123 96h-101v608h480v32c0 35.359 28.641 64 64 64zM64 640v-480h37c14.307 55.035 63.697 96 123 96s108.693-40.965 123-96h266c14.307 55.035 63.697 96 123 96s108.693-40.965 123-96h37v276l-175 204h-657zM416 544h64v-96h96v-64h-96v-96h-64v96h-96v64h96v96zM224 192c-35.725 0-64-28.275-64-64s28.275-64 64-64 64 28.275 64 64-28.275 64-64 64zM736 192c-35.725 0-64-28.275-64-64s28.275-64 64-64 64 28.275 64 64-28.275 64-64 64z" />
<glyph unicode="&#xf109;" glyph-name="anchor" d="M512 768c70.312 0 128-57.688 128-128 0-59.303-40.965-108.693-96-123v-69h96v-64h-96v-255c77.637 6.164 129.303 34.527 166 67 27.98 24.758 46.705 51.938 60 75l-51 25 128 58 34-138-53 26c-15.129-27.156-38.676-61.857-75-94-46.553-41.193-115.145-75.393-209-82v-2l-32-32-32 32v2c-93.855 6.607-162.447 40.807-209 82-36.324 32.143-59.871 66.844-75 94l-53-26 34 138 128-58-51-25c13.295-23.062 32.020-50.242 60-75 36.697-32.473 88.363-60.836 166-67v255h-96v64h96v69c-55.035 14.307-96 63.697-96 123 0 70.312 57.688 128 128 128zM512 704c-35.725 0-64-28.275-64-64s28.275-64 64-64 64 28.275 64 64-28.275 64-64 64z" />
<glyph unicode="&#xf10a;" glyph-name="android" d="M305 784c0.275 0.018 0.725 0.031 1 0.031s0.725-0.014 1-0.031c0.414 0.039 1.086 0.070 1.5 0.070s1.086-0.031 1.5-0.070c4.787-0.262 10.609-3.846 13-8l48-68c32.205 17.967 69.643 28 109 28s76.795-10.033 109-28l48 68c1.797 3.414 6.275 6.998 10 8 0.414 0.039 1.086 0.070 1.5 0.070s1.086-0.031 1.5-0.070l0.514 0.008c8.832 0 16.002-7.168 16.002-16.002 0-3.102-1.576-7.584-3.516-10.006l-47-68c53.33-41.016 88-105.811 88-178v-320c0-22.473-14.156-38.562-32-50v-94c0-43.811-36.189-80-80-80s-80 36.189-80 80v80h-64v-80c0-43.811-36.189-80-80-80s-80 36.189-80 80v94c-17.844 11.438-32 27.527-32 50v320c0 72.189 34.67 136.984 88 178l-47 68c-2.178 2.496-3.945 7.209-3.945 10.521 0 6.816 5.352 13.75 11.945 15.479zM480 672c-77.662 0-142.15-54.902-157-128h314c-14.85 73.098-79.338 128-157 128zM416 640c17.674 0 32-14.326 32-32s-14.326-32-32-32-32 14.326-32 32 14.326 32 32 32zM544 640c17.674 0 32-14.326 32-32s-14.326-32-32-32-32 14.326-32 32 14.326 32 32 32zM160 544h64v-320h-64v320zM736 544h64v-320h-64v320zM320 480v-288h32v-144c0-9.182 6.818-16 16-16s16 6.818 16 16v144h192v-144c0-9.182 6.818-16 16-16s16 6.818 16 16v144h32v288h-320z" />
<glyph unicode="&#xf10b;" glyph-name="angellist" d="M410 768c9.996-0.664 19.67-3.768 28-8 16.66-8.467 29.404-21.438 41-36 23.193-29.125 41.949-67.297 58-106 6.611-15.941 12.492-31.521 18-47 3.475 12.828 6.719 25.85 11 39 12.512 38.424 28.865 76.65 51 107 11.068 15.176 23.389 28.65 40 38s37.572 13.482 58 9c20.104-4.422 34.914-21.672 41-37s7.672-31.035 8-48c0.656-33.928-5.391-73.273-13-112-12.322-62.705-27.617-113.117-34-134 10.512-7.943 19.953-16.498 27-26 32.787-44.213 24-96.322 24-108 0-135.012-49.598-215.4-109-256s-123.982-43-152-43c-25.775 0-93.496-0.754-158 29s-125 96.35-125 210c0 34.508 8.35 63.887 29 84 12.889 12.553 29.723 18.236 47 20-6.551 17.533-11.568 37.189-9 59 2.854 24.234 18.021 49.85 43 66 10.203 6.594 21.498 10.436 33 11 5.414 0.266 10.756-0.029 16-1-8.746 24.561-18.475 53.287-27 84-10.416 37.525-19.102 76.252-20 111-0.449 17.373 1.178 33.889 7 50s18.475 32.557 37 40c9.688 3.893 20.004 5.664 30 5zM405 705c-0.418 0.055-0.572-0.83-1-1 0.143-0.213-0.189-0.758-1-3-1.621-4.484-3.322-14.502-3-27 0.646-24.994 7.316-60.117 17-95 15.914-57.328 34.6-103.99 42-122 14.158 13.777 34.625 23 57 23h2c-8.17 28.787-21.061 68.328-40 114-14.875 35.867-32.83 69.693-49 90-8.086 10.152-15.748 16.84-20 19-2.127 1.080-3.305 1.91-4 2zM693 700c-1.5 0.002-3.275-0.029-5-1-5.387-3.031-12.52-9.742-20-20-14.963-20.516-29.602-53.996-41-89-15.613-47.947-24.139-88.365-29-115 23.064-3.012 43.348-7.439 61-13 7.604 26.238 19.039 67.307 29 118 7.162 36.449 12.486 72.857 12 98-0.205 10.609-1.742 17.527-3 22-1.275-0.041-2.5-0.002-4 0zM516 416c-7.939 0-10.205-1.965-13-5s-5.424-8.131-6-15c-0.48-5.725 0.213-11.35 2-16 1.459-2.24 2.574-4.711 4-7 0.629-0.758 1.289-1.355 2-2 1.971-1.785 4.465-3.256 7-4 40.258-11.818 91-27 91-27 12.762-3.688 23.121-17.461 23.121-30.746 0-14.199-11.254-28.199-25.121-31.254 0 0-18.084-3.756-36-15-11.137-6.988-21.287-14.758-27-26-3.479-6.846-5-14.99-5-25 0-27.713 7.697-45.26 15-56s12-13 12-13l-35-53s-16.471 10.102-30 30c-6.045 8.891-11.314 20.848-16 34-2.533-5.883-3.18-12.488-7-17-14.898-17.598-36.461-29-61-29-23.689 0-45.072 11.801-61 26s-28.469 31.574-41 51l54 35c11.084-17.184 21.52-31.439 30-39s13.178-9 18-9c3.973 0 9.994 3.629 12 6-6.914 11.717-13.684 22.285-21 32-31.617 41.982-65.582 65.424-85 70-12.047 2.84-15.445 1.463-19-2s-10-15.061-10-39c0-93.037 39.824-129.777 88-152s105.479-23 131-23c23.279 0 73.73 3.111 116 32s81 82.844 81 203c0 26.307 4.582 47.988-11 69s-59.057 48-177 48zM368 415c-10.879-7.033-12.029-11.748-13-20-0.973-8.252 0.811-21.168 6-34 10.379-25.666 30-49 30-49 21.221-16.178 40.824-37.668 60-64l2 1c-6.287 8.234-6.99 4.137-2 4 4.99-0.139 13.244 1.324 19 4s8.936 5.785 10 8 2.035 4.693-2 15c-17.158 43.85-44.047 85.305-69 110-12.477 12.348-24.473 20.17-32 23s-7.645 2.875-9 2z" />
<glyph unicode="&#xf10c;" glyph-name="angle-double-down" d="M167 682l345-345 345 345 46-45-391-391-391 391zM167 458l345-345 345 345 46-45-391-391-391 391z" />
<glyph unicode="&#xf10d;" glyph-name="angle-double-left" d="M509 743l45-46-313-313 313-313-45-46-359 359 23 23zM733 743l45-46-313-313 313-313-45-46-359 359 23 23z" />
<glyph unicode="&#xf10e;" glyph-name="angle-double-right" d="M291 743l359-359-359-359-45 46 313 313-313 313zM515 743l359-359-359-359-45 46 313 313-313 313z" />
<glyph unicode="&#xf10f;" glyph-name="angle-double-up" d="M512 746l391-391-46-45-345 345-345-345-46 45 368 368zM512 522l391-391-46-45-345 345-345-345-46 45 368 368z" />
<glyph unicode="&#xf110;" glyph-name="angle-down" d="M135 551l377-377 377 377 46-46-400-400-23-22-23 22-400 400z" />
<glyph unicode="&#xf111;" glyph-name="angle-left" d="M609 759l46-46-329-329 329-329-46-46-352 352-22 23 22 23z" />
<glyph unicode="&#xf112;" glyph-name="angle-right" d="M415 759l352-352 22-23-22-23-352-352-46 46 329 329-329 329z" />
<glyph unicode="&#xf113;" glyph-name="angle-up" d="M512 685l23-22 400-400-46-46-377 377-377-377-46 46 400 400z" />
<glyph unicode="&#xf114;" glyph-name="apple" d="M667 832h30l2-30c3.014-52.656-15.898-103.838-50-142h-1c-0.311-0.346-0.686-0.656-1-1-0.131-0.172 0.131-0.828 0-1-6.303-8.242-16.258-12.787-24-20 13.775 2.678 24.574 8 40 8 33.164-0.039 116.756-10.633 169-91l18-27-27-17c-3.408-2.154-3.016-1.729-5-3s-4.672-2.496-8-5c-6.654-5.006-15.439-13.080-24-23-17.121-19.84-33-47.623-33-89 0-42.725 17.053-70.607 37-91s42.34-31.461 48-34l24-11-6-26c-1.865-8.014-3.229-10.018-6-17s-6.256-15.637-11-26c-9.486-20.725-22.455-46.609-39-73s-36.33-53.699-60-75-52.779-38-87-38c-31.66 0-55.498 10.291-73 18s-29.096 14-52 14c-25.436 0-38.727-6.438-56-14s-40.254-18-71-18c-30.748 0-57.979 14.846-84 36s-51 49.545-73 84c-44 68.912-77 160.883-77 259 0 151.684 96.57 267 224 267 32.467 0 59.916-10.055 82-19 4.6-1.863 4.848-1.422 9-3-8.563 57.098 18.789 106.68 44 138v1c35.531 41.764 88.463 69 141 69zM629 758c-19.646-8.014-38.988-19.953-53-36-0.299-0.342-0.705-0.656-1-1-12.684-16.008-21.783-37.082-27-58 18.896 7.221 37.727 19.439 50 36l2 2c14.439 15.699 23.498 35.916 29 57zM391 582c-89.594 0-160-76.861-160-203 0-83.418 29.145-164.711 67-224 18.928-29.645 39.842-53.426 59-69s36.123-22 44-22c16.518 0 26.281 4.803 45 13s45.676 19 82 19c34.6 0 59.725-10.949 78-19s28.836-13 47-13c12.051 0 27.172 6.857 44 22s34.449 37.791 49 61 26.42 47.256 35 66c2.223 4.857 3.281 7.973 5 12-13.492 7.777-24.371 11.979-42 30-28.428 29.062-55 74.949-55 136 0 58.721 24.584 102.705 49 131 6.473 7.502 11.922 11.516 18 17-34.924 32.385-76.236 42.98-93 43-25.17 0-50.818-6.721-75-15s-44.787-19-72-19c-27.334 0-46.5 10.697-67 19s-40.162 15-58 15z" />
<glyph unicode="&#xf115;" glyph-name="archive" d="M128 736h768v-192h-32v-512h-704v512h-32v192zM192 672v-64h640v64h-640zM224 544v-448h576v448h-576zM410 480c0.414 0.020 1.086 0.035 1.5 0.035s1.086-0.016 1.5-0.035c0.414 0.020 1.086 0.035 1.5 0.035s1.086-0.016 1.5-0.035l192.453 0.004c17.666 0 32.002-14.338 32.002-32.004s-14.336-32.004-32.002-32.004l-0.453 0.004h-192c-0.826-0.078-2.17-0.141-3-0.141-17.742 0-32.141 14.398-32.141 32.141 0 16.156 13.055 30.492 29.141 32z" />
<glyph unicode="&#xf116;" glyph-name="area-chart" d="M896 766v-766h-768v551l38-8 146-29 182 121 11 7 191-32 148 116zM832 635l-108-84-11-9-14 2-180 30-181-121-11-7-13 3-122 24v-131l124-50 178 119 13 8 15-5 175-58 135 107v172zM832 381l-108-86-14-11-16 6-176 59-180-120-14-9-16 6-116 46v-208h640v317z" />
<glyph unicode="&#xf117;" glyph-name="arrow-circle-down" d="M512 800c229.372 0 416-186.629 416-416s-186.629-416-416-416-416 186.629-416 416 186.629 416 416 416zM512 736c-194.783 0-352-157.217-352-352s157.217-352 352-352 352 157.217 352 352-157.217 352-352 352zM480 608h64v-329l128 128 45-46-205-205-205 205 45 46 128-128v329z" />
<glyph unicode="&#xf118;" glyph-name="arrow-circle-left" d="M512 800c229.372 0 416-186.629 416-416s-186.629-416-416-416-416 186.629-416 416 186.629 416 416 416zM512 736c-194.783 0-352-157.217-352-352s157.217-352 352-352 352 157.217 352 352-157.217 352-352 352zM489 589l46-45-128-128h329v-64h-329l128-128-46-45-205 205 23 23z" />
<glyph unicode="&#xf119;" glyph-name="arrow-circle-o-down" d="M512 800c229.372 0 416-186.629 416-416s-186.629-416-416-416-416 186.629-416 416 186.629 416 416 416zM512 736c-194.783 0-352-157.217-352-352s157.217-352 352-352 352 157.217 352 352-157.217 352-352 352zM480 608h64v-329l128 128 45-46-205-205-205 205 45 46 128-128v329z" />
<glyph unicode="&#xf11a;" glyph-name="arrow-circle-o-left" d="M512 800c229.372 0 416-186.629 416-416s-186.629-416-416-416-416 186.629-416 416 186.629 416 416 416zM512 736c-194.783 0-352-157.217-352-352s157.217-352 352-352 352 157.217 352 352-157.217 352-352 352zM489 589l46-45-128-128h329v-64h-329l128-128-46-45-205 205 23 23z" />
<glyph unicode="&#xf11b;" glyph-name="arrow-circle-o-right" d="M512 800c229.372 0 416-186.629 416-416s-186.629-416-416-416-416 186.629-416 416 186.629 416 416 416zM512 736c-194.783 0-352-157.217-352-352s157.217-352 352-352 352 157.217 352 352-157.217 352-352 352zM535 589l205-205-205-205-46 45 128 128h-329v64h329l-128 128z" />
<glyph unicode="&#xf11c;" glyph-name="arrow-circle-o-up" d="M512 800c229.372 0 416-186.629 416-416s-186.629-416-416-416-416 186.629-416 416 186.629 416 416 416zM512 736c-194.783 0-352-157.217-352-352s157.217-352 352-352 352 157.217 352 352-157.217 352-352 352zM512 612l205-205-45-46-128 128v-329h-64v329l-128-128-45 46 182 182z" />
<glyph unicode="&#xf11d;" glyph-name="arrow-circle-right" d="M512 800c229.372 0 416-186.629 416-416s-186.629-416-416-416-416 186.629-416 416 186.629 416 416 416zM512 736c-194.783 0-352-157.217-352-352s157.217-352 352-352 352 157.217 352 352-157.217 352-352 352zM535 589l205-205-205-205-46 45 128 128h-329v64h329l-128 128z" />
<glyph unicode="&#xf11e;" glyph-name="arrow-circle-up" d="M512 800c229.372 0 416-186.629 416-416s-186.629-416-416-416-416 186.629-416 416 186.629 416 416 416zM512 736c-194.783 0-352-157.217-352-352s157.217-352 352-352 352 157.217 352 352-157.217 352-352 352zM512 612l205-205-45-46-128 128v-329h-64v329l-128-128-45 46 182 182z" />
<glyph unicode="&#xf11f;" glyph-name="arrow-down" d="M480 768h64v-642l217 217 46-46-272-272-23-22-23 22-272 272 46 46 217-217v642z" />
<glyph unicode="&#xf120;" glyph-name="arrow-left" d="M425 679l46-46-217-217h642v-64h-642l217-217-46-46-272 272-22 23 22 23z" />
<glyph unicode="&#xf121;" glyph-name="arrow-right" d="M599 679l272-272 22-23-22-23-272-272-46 46 217 217h-642v64h642l-217 217z" />
<glyph unicode="&#xf122;" glyph-name="arrow-up" d="M512 765l23-22 272-272-46-46-217 217v-642h-64v642l-217-217-46 46 272 272z" />
<glyph unicode="&#xf123;" glyph-name="arrows" d="M128 768h288v-64h-178l274-274 274 274h-178v64h288v-288h-64v178l-274-274 274-274v178h64v-288h-288v64h178l-274 274-274-274h178v-64h-288v288h64v-178l274 274-274 274v-178h-64v288z" />
<glyph unicode="&#xf124;" glyph-name="arrows-alt" d="M128 768h288v-64h-178l274-274 274 274h-178v64h288v-288h-64v178l-274-274 274-274v178h64v-288h-288v64h178l-274 274-274-274h178v-64h-288v288h64v-178l274 274-274 274v-178h-64v288z" />
<glyph unicode="&#xf125;" glyph-name="arrows-h" d="M297 679l46-46-217-217h772l-217 217 46 46 272-272 22-23-22-23-272-272-46 46 217 217h-772l217-217-46-46-272 272-22 23 22 23z" />
<glyph unicode="&#xf126;" glyph-name="arrows-v" d="M512 829l23-22 256-256-46-46-201 201v-644l201 201 46-46-256-256-23-22-23 22-256 256 46 46 201-201v644l-201-201-46 46 256 256z" />
<glyph unicode="&#xf127;" glyph-name="asterisk" d="M566.4 352l198.4-268.8-76.801-51.199-176 278.4-176-278.4-73.6 51.199 198.4 268.8-297.602 76.801 28.801 83.199 291.2-102.4-19.199 326.4h96l-16-326.4 288 102.4 25.6-86.4z" />
<glyph unicode="&#xf128;" glyph-name="at" d="M518 768c202.792-2.975 371.842-169.264 378-372 0.145-4.59 0-8.768 0-13-0.383-105.25-86.914-191.039-192-191-40.678 0.025-76.498 20.107-100 50-26.459-30.336-64.867-50-108-50-79.15 0-144 64.85-144 144v96c0 79.15 64.85 144 144 144 29.682 0 57.006-9.426 80-25v25h64v-256c0-35.703 28.256-63.979 64-64 70.658-0.025 127.744 56.506 128 127 0 3.896 0.111 7.398 0 11-5.105 168.080-146.846 307.534-315 310-197.289 2.887-353.546-171.137-320-375 22.275-135.475 133.83-243.62 270-262 93.412-12.613 179.533 14.459 245 67l40-50c-78.471-62.979-182.123-94.971-293-80-164.439 22.195-299.058 151.146-326 315-39.732 241.448 149.328 452.45 385 449zM496 512c-44.562 0-80-35.438-80-80v-96c0-44.562 35.438-80 80-80s80 35.438 80 80v96c0 44.562-35.438 80-80 80z" />
<glyph unicode="&#xf129;" glyph-name="automobile" d="M304 704h416c42.244 0 79.848-27.521 92-68l44-147 62 21 20-60-63-21 20-68c0.561-2.172 1.016-5.756 1.016-7.998 0-0.277-0.008-0.727-0.016-1.002v-224c0.055-0.689 0.098-1.809 0.098-2.5s-0.043-1.811-0.098-2.5v-27c0-17.664-14.336-32-32-32h-96l-11 32h-490l-11-32h-96c-17.664 0-32 14.336-32 32v29c-0.020 0.414-0.035 1.086-0.035 1.5s0.016 1.086 0.035 1.5v224c-0.008 0.275-0.016 0.725-0.016 1.002 0 2.242 0.455 5.826 1.016 7.998l20 68-63 21 20 60 62-21 44 147c12.146 40.504 49.756 68 92 68zM304 640c-14.268 0-26.891-9.295-31-23l-41-137h560l-41 137c-4.104 13.664-16.732 23-31 23h-416zM213 416l-21-70v-186h640v186l-21 70h-598zM272 384c26.51 0 48-21.49 48-48s-21.49-48-48-48-48 21.49-48 48 21.49 48 48 48zM752 384c26.51 0 48-21.49 48-48s-21.49-48-48-48-48 21.49-48 48 21.49 48 48 48zM384 288h256l40-96h-69l-14 32h-170l-14-32h-69z" />
<glyph unicode="&#xf12a;" glyph-name="backward" d="M544 736v-236l269 198 51 37v-702l-51 37-269 198v-236l-51 38-384 288-34 26 34 26 384 288zM800 609l-269-198-36-27 36-27 269-198v450zM480 608l-298-224 298-224v448z" />
<glyph unicode="&#xf12b;" glyph-name="balance-scale" d="M512 736c41.344 0 76.617-27.016 90-64h230v-64h-45l9-16 128-224 4-8v-8c0-87.984-72.016-160-160-160s-160 72.016-160 160v8l4 8 128 224 9 16h-147c-9.727-26.879-31.121-48.273-58-58v-422h128v-64h-320v64h128v422c-26.947 9.742-48.23 31-58 58h-147l9-16 128-224 4-8v-8c0-87.984-72.016-160-160-160s-160 72.016-160 160v8l4 8 128 224 9 16h-45v64h230c13.383 36.984 48.656 64 90 64zM512 672c-18.053 0-32-13.947-32-32s13.947-32 32-32 32 13.947 32 32-13.947 32-32 32zM256 511l-73-127h146zM768 511l-73-127h146zM168 320c12.863-37.152 46.207-64 88-64s75.137 26.848 88 64h-176zM680 320c12.863-37.152 46.207-64 88-64s75.137 26.848 88 64h-176z" />
<glyph unicode="&#xf12c;" glyph-name="ban" d="M512 800c229.372 0 416-186.629 416-416s-186.629-416-416-416-416 186.629-416 416 186.629 416 416 416zM512 736c-84.711 0-162.342-29.371-223-79l491-501c52.328 61.42 84 140.758 84 228 0 194.783-157.217 352-352 352zM244 612c-52.328-61.42-84-140.758-84-228 0-194.783 157.217-352 352-352 84.711 0 162.342 29.371 223 79z" />
<glyph unicode="&#xf12d;" glyph-name="bank" d="M512 771l396-165 20-9v-85h-64v-352h64v-160h-832v160h64v352h-64v85l20 9 384 160zM512 701l-300-125h600zM224 512v-352h64v352h-64zM352 512v-352h64v352h-64zM480 512v-352h64v352h-64zM608 512v-352h64v352h-64zM736 512v-352h64v352h-64zM160 96v-32h704v32h-704z" />
<glyph unicode="&#xf12e;" glyph-name="bar-chart" d="M672 768h256v-768h-256v768zM736 704v-640h128v640h-128zM96 576h256v-576h-256v576zM160 512v-448h128v448h-128zM384 384h256v-384h-256v384zM448 320v-256h128v256h-128z" />
<glyph unicode="&#xf12f;" glyph-name="bar-chart-o" d="M672 768h256v-768h-256v768zM736 704v-640h128v640h-128zM96 576h256v-576h-256v576zM160 512v-448h128v448h-128zM384 384h256v-384h-256v384zM448 320v-256h128v256h-128z" />
<glyph unicode="&#xf130;" glyph-name="barcode" d="M64 672h64v-576h-64v576zM192 672h192v-576h-192v576zM448 672h64v-576h-64v576zM576 672h128v-576h-128v576zM768 672h64v-576h-64v576zM896 672h64v-576h-64v576z" />
<glyph unicode="&#xf131;" glyph-name="bars" d="M128 672h768v-64h-768v64zM128 416h768v-64h-768v64zM128 160h768v-64h-768v64z" />
<glyph unicode="&#xf132;" glyph-name="battery-0" d="M96 640h768v-160h64v-192h-64v-160h-768v512zM160 576v-384h640v384h-640z" />
<glyph unicode="&#xf133;" glyph-name="battery-1" d="M96 640h768v-160h64v-192h-64v-160h-768v512zM160 576v-384h640v384h-640zM224 512h128v-256h-128v256z" />
<glyph unicode="&#xf134;" glyph-name="battery-2" d="M96 640h768v-160h64v-192h-64v-160h-768v512zM160 576v-384h640v384h-640zM224 512h256v-256h-256v256z" />
<glyph unicode="&#xf135;" glyph-name="battery-3" d="M96 640h768v-160h64v-192h-64v-160h-768v512zM160 576v-384h640v384h-640zM224 512h448v-256h-448v256z" />
<glyph unicode="&#xf136;" glyph-name="battery-4" d="M96 640h768v-160h64v-192h-64v-160h-768v512zM160 576v-384h640v384h-640zM224 512h512v-256h-512v256z" />
<glyph unicode="&#xf137;" glyph-name="battery-empty" d="M96 640h768v-160h64v-192h-64v-160h-768v512zM160 576v-384h640v384h-640z" />
<glyph unicode="&#xf138;" glyph-name="battery-full" d="M96 640h768v-160h64v-192h-64v-160h-768v512zM160 576v-384h640v384h-640zM224 512h512v-256h-512v256z" />
<glyph unicode="&#xf139;" glyph-name="battery-half" d="M96 640h768v-160h64v-192h-64v-160h-768v512zM160 576v-384h640v384h-640zM224 512h256v-256h-256v256z" />
<glyph unicode="&#xf13a;" glyph-name="battery-quarter" d="M96 640h768v-160h64v-192h-64v-160h-768v512zM160 576v-384h640v384h-640zM224 512h128v-256h-128v256z" />
<glyph unicode="&#xf13b;" glyph-name="battery-three-quarters" d="M96 640h768v-160h64v-192h-64v-160h-768v512zM160 576v-384h640v384h-640zM224 512h448v-256h-448v256z" />
<glyph unicode="&#xf13c;" glyph-name="bed" d="M192 704h640c52.654 0 96-43.346 96-96v-217c19.527-17.625 32-42.893 32-71v-288h-160v64h-576v-64h-160v288c0 28.107 12.473 53.375 32 71v217c0 52.654 43.346 96 96 96zM192 640c-17.746 0-32-14.254-32-32v-192h64v32c0 52.654 43.346 96 96 96h128c24.547 0 46.947-9.609 64-25 17.053 15.391 39.453 25 64 25h128c52.654 0 96-43.346 96-96v-32h64v192c0 17.746-14.254 32-32 32h-640zM320 480c-17.746 0-32-14.254-32-32v-32h192v32c0 17.746-14.254 32-32 32h-128zM576 480c-17.746 0-32-14.254-32-32v-32h192v32c0 17.746-14.254 32-32 32h-128zM160 352c-17.746 0-32-14.254-32-32v-224h32v64h704v-64h32v224c0 17.746-14.254 32-32 32h-704z" />
<glyph unicode="&#xf13d;" glyph-name="beer" d="M432 768c35.062 0 65.158-15.162 90-36 7.266 1.471 13.793 4 22 4 23.93 0 44.973-8.555 64-20 19.027 11.445 40.070 20 64 20 70.314 0 128-57.686 128-128 0-31.895-12.467-60.508-32-83 0.105-0.963 0.191-2.531 0.191-3.5s-0.086-2.537-0.191-3.5v-38h32c52.639 0 96-43.361 96-96v-128c0-52.639-43.361-96-96-96h-32v-64c0-52.639-43.361-96-96-96h-384c-52.639 0-96 43.361-96 96v416c0.014 3.135 0.91 8.063 2 11-20.635 22.754-34 52.107-34 85 0 70.314 57.686 128 128 128 16.219 0 29.713-7.449 44-13 26.068 26.34 60.125 45 100 45zM432 704c-27.221 0-50.461-13.328-65-34l-18-25-26 16c-10.209 6.684-22.051 11-35 11-35.732 0-64-28.268-64-64s28.268-64 64-64c18.188 0 34.27 7.84 46 20l21 22 23-21c14.473-13.17 33.32-21 54-21 2.676 0 11.697 1.871 19 5s13 6 13 6l48 30v-57c0-44.566-9.621-78.127-18-104s-14-43.316-14-56c0-26.906 21.094-48 48-48s48 21.094 48 48c0 12.684-5.609 29.184-14 55s-18 60.133-18 105v43l41-12s51.551-15 87-15c35.732 0 64 28.268 64 64s-28.268 64-64 64c-16.414 0-31.352-6.512-43-17l-21-19-21 19c-11.648 10.488-26.586 17-43 17-6.064 0-11.828-1.684-19-4l-20-6-14 15c-14.84 16.371-35.484 27-59 27zM358 504c-20.389-13.771-43.639-24-70-24-11.012 0-21.781 2.344-32 5v-389c0-18.080 13.92-32 32-32h384c18.080 0 32 13.92 32 32v89c-0.369 1.775-0.668 4.688-0.668 6.5s0.299 4.725 0.668 6.5v241c-0.795 2.563-1.441 6.818-1.441 9.5s0.646 6.938 1.441 9.5v27c-10.219-2.656-20.988-5-32-5-28.256 0-37.559 4.256-58 9 2.701-15.217 3.875-33.309 8-46 7.609-23.416 18-45.955 18-75 0-61.479-50.521-112-112-112s-112 50.521-112 112c0 29.045 10.379 51.473 18 75 3.49 10.775 3.424 26.654 6 39-3.068-0.326-4.678-2-8-2-27.676 0-52.158 10.412-74 24zM768 416v-192h32c18.080 0 32 13.92 32 32v128c0 18.080-13.92 32-32 32h-32z" />
<glyph unicode="&#xf13e;" glyph-name="behance" d="M32 680h278c182.623 0 189-102.199 189-147 0-80.416-53.279-110.359-80-123 36.385-10.465 108-45.84 108-150 0-166.656-182.535-172-209-172h-286v592zM684 625h221v-54h-221v54zM162 579v-138h132c23.039 0 79 6.641 79 70 0 74.080-77.48 68-89 68h-122zM800 522c149.439 0 196.76-125.969 191-234h-284c0-31.199 7.721-101 97-101 53.217 0 81.287 39.775 85 52h96c-15.359-47.52-52.871-133-185-133-49.023 0-202 21.408-202 208 0 62.848 34.928 208 202 208zM797 441c-17.313 0-31.512-3.049-43-9-11.232-5.855-20.961-13.393-28-22-7.008-8.736-11.248-18.145-14-28-2.783-9.6-4.488-18.32-5-26h176c-2.592 27.648-12.072 48.633-25 63-12.863 14.271-34.375 22-61 22zM162 352v-163h139c12.832 0 96-0.145 96 78 0 80.672-66 85-94 85h-141z" />
<glyph unicode="&#xf13f;" glyph-name="behance-square" d="M32 680h278c182.623 0 189-102.199 189-147 0-80.416-53.279-110.359-80-123 36.385-10.465 108-45.84 108-150 0-166.656-182.535-172-209-172h-286v592zM684 625h221v-54h-221v54zM162 579v-138h132c23.039 0 79 6.641 79 70 0 74.080-77.48 68-89 68h-122zM800 522c149.439 0 196.76-125.969 191-234h-284c0-31.199 7.721-101 97-101 53.217 0 81.287 39.775 85 52h96c-15.359-47.52-52.871-133-185-133-49.023 0-202 21.408-202 208 0 62.848 34.928 208 202 208zM797 441c-17.313 0-31.512-3.049-43-9-11.232-5.855-20.961-13.393-28-22-7.008-8.736-11.248-18.145-14-28-2.783-9.6-4.488-18.32-5-26h176c-2.592 27.648-12.072 48.633-25 63-12.863 14.271-34.375 22-61 22zM162 352v-163h139c12.832 0 96-0.145 96 78 0 80.672-66 85-94 85h-141z" />
<glyph unicode="&#xf140;" glyph-name="bell" d="M480 800c35.346 0 64-28.654 64-64 0-2.729-0.668-5.361-1-8 112.684-29.553 193-136.727 193-257v-279c0-18.080 13.92-32 32-32h32v-64h-230c3.656-10.104 6-20.705 6-32 0-52.641-43.359-96-96-96s-96 43.359-96 96c0 11.295 2.344 21.896 6 32h-230v64h32c18.080 0 32 13.92 32 32v288c0 119.236 82.365 219.722 193 248-0.332 2.639-1 5.271-1 8 0 35.346 28.654 64 64 64zM466 672c-99.766-7.238-178-90.371-178-192v-288c0-11.295-2.344-21.896-6-32h396c-3.656 10.104-6 20.705-6 32v279c0 106.221-81.463 197.863-186 201-2.049 0.063-3.967 0.002-6 0-4.744-0.004-9.344 0.338-14 0zM480 96c-18.053 0-32-13.947-32-32s13.947-32 32-32 32 13.947 32 32-13.947 32-32 32z" />
<glyph unicode="&#xf141;" glyph-name="bell-o" d="M480 800c35.346 0 64-28.654 64-64 0-2.729-0.668-5.361-1-8 112.684-29.553 193-136.727 193-257v-279c0-18.080 13.92-32 32-32h32v-64h-230c3.656-10.104 6-20.705 6-32 0-52.641-43.359-96-96-96s-96 43.359-96 96c0 11.295 2.344 21.896 6 32h-230v64h32c18.080 0 32 13.92 32 32v288c0 119.236 82.365 219.722 193 248-0.332 2.639-1 5.271-1 8 0 35.346 28.654 64 64 64zM466 672c-99.766-7.238-178-90.371-178-192v-288c0-11.295-2.344-21.896-6-32h396c-3.656 10.104-6 20.705-6 32v279c0 106.221-81.463 197.863-186 201-2.049 0.063-3.967 0.002-6 0-4.744-0.004-9.344 0.338-14 0zM480 96c-18.053 0-32-13.947-32-32s13.947-32 32-32 32 13.947 32 32-13.947 32-32 32z" />
<glyph unicode="&#xf142;" glyph-name="bell-slash" d="M119 823l189-189c7.881 10.428 16.414 20.711 26 30 32.602 31.686 72.176 53.156 115 64-0.332 2.639-1 5.271-1 8 0 35.346 28.654 64 64 64s64-28.654 64-64c0-3.066-0.582-6.049-1-9 110.375-29.447 193-133.529 193-256v-279c0-17.664 14.336-32 32-32h32v-50l119-119-46-46-832 832zM498 672c-45.123-3.066-87.1-22.053-120-54-9.344-9.059-16.842-19.529-24-30l350-350v233c0 107.936-83.408 197.928-186 201-6.553 0.207-13.555 0.438-20 0zM257 504l63-62v-250c0-11.264-2.416-21.951-6-32h288l64-64h-64c3.656-10.104 6-20.705 6-32 0-52.641-43.359-96-96-96s-96 43.359-96 96c0 11.295 2.344 21.896 6 32h-230v64h32c17.664 0 32 14.336 32 32v288c0 8.191 0.232 15.936 1 24zM512 96c-18.053 0-32-13.947-32-32s13.947-32 32-32 32 13.947 32 32-13.947 32-32 32z" />
<glyph unicode="&#xf143;" glyph-name="bell-slash-o" d="M119 823l189-189c7.881 10.428 16.414 20.711 26 30 32.602 31.686 72.176 53.156 115 64-0.332 2.639-1 5.271-1 8 0 35.346 28.654 64 64 64s64-28.654 64-64c0-3.066-0.582-6.049-1-9 110.375-29.447 193-133.529 193-256v-279c0-17.664 14.336-32 32-32h32v-50l119-119-46-46-832 832zM498 672c-45.123-3.066-87.1-22.053-120-54-9.344-9.059-16.842-19.529-24-30l350-350v233c0 107.936-83.408 197.928-186 201-6.553 0.207-13.555 0.438-20 0zM257 504l63-62v-250c0-11.264-2.416-21.951-6-32h288l64-64h-64c3.656-10.104 6-20.705 6-32 0-52.641-43.359-96-96-96s-96 43.359-96 96c0 11.295 2.344 21.896 6 32h-230v64h32c17.664 0 32 14.336 32 32v288c0 8.191 0.232 15.936 1 24zM512 96c-18.053 0-32-13.947-32-32s13.947-32 32-32 32 13.947 32 32-13.947 32-32 32z" />
<glyph unicode="&#xf144;" glyph-name="bicycle" d="M608 704h176c43.811 0 80-36.189 80-80s-36.189-80-80-80v64c9.182 0 16 6.818 16 16s-6.818 16-16 16h-99l86-197c14.453 3.217 29.627 5 45 5 114.254 0 208-93.746 208-208s-93.746-208-208-208-208 93.746-208 208c0 76.494 41.938 143.871 104 180l-21 48-156-230-10-14h-110c-8.314-107.127-97.777-192-207-192-114.688 0-208 93.312-208 208s93.344 208 208 208c21.25 0 41.682-3.051 61-9l87 123 10 14h278l-33 76-3 6v46zM256 672h160l32-64h-192v64zM431 512l84-190 129 190h-213zM375 480l-48-69c32.414-22.539 57.574-54.148 73-91h-72c-25.855 38.561-70.176 64-120 64-79.393 0-144-64.607-144-144s64.607-144 144-144c73.904 0 133.908 56.219 142 128h-158v64h267zM816 384c-6.16 0-12.039-1.244-18-2l63-145-58-26-65 149c-39.352-25.742-66-69.613-66-120 0-79.346 64.654-144 144-144s144 64.654 144 144-64.654 144-144 144z" />
<glyph unicode="&#xf145;" glyph-name="binoculars" d="M352 736c59.426 0 107.57-41.115 122-96h76c14.43 54.885 62.574 96 122 96 62.963 0 113.287-46.127 124-106 60.855-15.613 112.652-55.299 136-112v-1l1-1 73-204c11.59-27.004 18-56.846 18-88 0-123.332-100.668-224-224-224-111.092 0-203.694 81.652-221 188-17.375-17.105-40.951-28-67-28s-49.625 10.895-67 28c-17.307-106.348-109.908-188-221-188-123.332 0-224 100.668-224 224 0 35.080 8.506 68.383 23 98l68 191h1c22.992 62.41 75.551 101.764 136 117 10.713 59.873 61.037 106 124 106zM352 672c-38.086 0-64-25.914-64-64v-29l-29-3c-49.131-5.172-88.422-34.449-107-84v-1l-24-65c29.113 13.891 61.705 22 96 22 93.584 0 173.594-58.158 207-140 17.154 26.578 47.316 44 81 44s63.846-17.422 81-44c33.406 81.842 113.416 140 207 140 34.76 0 67.588-8.754 97-23l-24 68c-0.281 0.682-0.709 1.324-1 2-18.492 42.844-59.447 75.994-107 81l-29 3v29c0 38.086-25.914 64-64 64s-64-25.914-64-64v-32h-192v32c0 38.086-25.914 64-64 64zM224 384c-64.656 0-119.703-38.146-145-93-0.559-1.211-0.471-2.773-1-4-8.398-19.486-14-40.338-14-63 0-88.744 71.256-160 160-160s160 71.256 160 160-71.256 160-160 160zM800 384c-88.744 0-160-71.256-160-160s71.256-160 160-160 160 71.256 160 160-71.256 160-160 160zM512 288c-18.053 0-32-13.947-32-32s13.947-32 32-32 32 13.947 32 32-13.947 32-32 32z" />
<glyph unicode="&#xf146;" glyph-name="birthday-cake" d="M512 856l26-38s17.26-24.123 34-53c8.369-14.438 16.236-29.611 23-45s13-29.504 13-48c0-52.654-43.346-96-96-96s-96 43.346-96 96c0 18.496 6.236 32.611 13 48s14.631 30.562 23 45c16.74 28.877 34 53 34 53zM512 576h96v-128h192c70.713 0 128-57.287 128-128 0-32.506-12.051-62.43-32-85v-235h-768v235c-19.949 22.57-32 52.494-32 85 0 70.713 57.287 128 128 128h192v128h96zM512 740c-2.104-3.484-1.859-3.309-4-7-7.631-13.162-15.764-27.090-21-39s-7-22.896-7-22c0-17.746 14.254-32 32-32s32 14.254 32 32c0-0.896-1.764 10.090-7 22s-13.369 25.838-21 39c-2.141 3.691-1.896 3.516-4 7zM480 512v-64h64v64h-64zM224 384c-38.086 0-64-25.914-64-64s25.914-64 64-64 64 25.914 64 64h64c0-38.086 25.914-64 64-64s64 25.914 64 64h64c0-38.086 25.914-64 64-64s64 25.914 64 64h64c0-38.086 25.914-64 64-64s64 25.914 64 64-25.914 64-64 64h-576zM320 235c-23.449-26.529-57.793-43-96-43-11.074 0-21.754 2.359-32 5v-133h640v133c-10.246-2.641-20.926-5-32-5-38.207 0-72.551 16.471-96 43-23.449-26.529-57.793-43-96-43s-72.551 16.471-96 43c-23.449-26.529-57.793-43-96-43s-72.551 16.471-96 43z" />
<glyph unicode="&#xf147;" glyph-name="bitbucket" d="M480 736c73.391 0 147.047-9.559 205-25 28.977-7.721 53.807-15.887 74-28s41-30.256 41-59c0-7.186-1.734-14.068-4-20-2.459-12.641-21-109.367-43-222-11.697-59.881-23.787-119.99-33-168s-15.354-86.473-16-91c-2.869-20.109-16.020-34.266-30-45s-30.639-18.402-50-25c-38.721-13.195-88.057-21-144-21-55.975 0-105.547 7.756-144 21-19.227 6.623-35.104 14.447-49 25s-26.139 24.727-30 44c-8.086 40.43-88.303 457.656-93 482-2.266 5.932-4 12.814-4 20 0 28.744 20.807 46.887 41 59s45.023 20.279 74 28c57.953 15.441 131.609 25 205 25zM480 672c-67.986 0-138.297-8.49-189-22-25.352-6.756-45.283-14.971-57-22-3.289-1.973-3.492-2.717-5-4 1.508-1.283 1.711-2.027 5-4 11.717-7.029 31.648-15.244 57-22 50.703-13.51 121.014-22 189-22s138.297 8.49 189 22c25.352 6.756 45.283 14.971 57 22 3.289 1.973 3.492 2.717 5 4-1.508 1.283-1.711 2.027-5 4-11.717 7.029-31.648 15.244-57 22-50.703 13.51-121.014 22-189 22zM239 548c12.887-66.752 28.266-147.74 50-260 0 0 0.508-0.611 5-6s11.707-13.502 25-22c26.586-16.994 75.355-36 161-36 85.613 0 133.467 18.906 160 36 13.266 8.547 21.514 17.57 26 23 3.236 3.916 3.6 3.531 4 4 6.641 35.496 12.527 69.738 20 108 15.248 78.061 22.168 109.443 31 153-11.33-3.98-22.941-7.52-36-11-57.953-15.441-131.609-25-205-25s-147.047 9.559-205 25c-13.059 3.48-24.67 7.020-36 11zM480 480c52.641 0 96-43.359 96-96s-43.359-96-96-96-96 43.359-96 96 43.359 96 96 96zM480 416c-18.053 0-32-13.947-32-32s13.947-32 32-32 32 13.947 32 32-13.947 32-32 32zM307 195c3.072-15.787 11.055-56.275 12-61-0.391 1.945-0.184-0.305 6-5s17.35-10.955 32-16c29.299-10.092 72.928-17 123-17 50.105 0 94.48 6.939 124 17 14.76 5.029 25.082 11.455 31 16 2.662 2.045 4.35 3.158 5 4 1.15 8.055 7.178 36.791 12 61-38.412-19.086-93.352-34-172-34-79.58 0-134.527 15.881-173 35z" />
<glyph unicode="&#xf148;" glyph-name="bitbucket-square" d="M480 736c73.391 0 147.047-9.559 205-25 28.977-7.721 53.807-15.887 74-28s41-30.256 41-59c0-7.186-1.734-14.068-4-20-2.459-12.641-21-109.367-43-222-11.697-59.881-23.787-119.99-33-168s-15.354-86.473-16-91c-2.869-20.109-16.020-34.266-30-45s-30.639-18.402-50-25c-38.721-13.195-88.057-21-144-21-55.975 0-105.547 7.756-144 21-19.227 6.623-35.104 14.447-49 25s-26.139 24.727-30 44c-8.086 40.43-88.303 457.656-93 482-2.266 5.932-4 12.814-4 20 0 28.744 20.807 46.887 41 59s45.023 20.279 74 28c57.953 15.441 131.609 25 205 25zM480 672c-67.986 0-138.297-8.49-189-22-25.352-6.756-45.283-14.971-57-22-3.289-1.973-3.492-2.717-5-4 1.508-1.283 1.711-2.027 5-4 11.717-7.029 31.648-15.244 57-22 50.703-13.51 121.014-22 189-22s138.297 8.49 189 22c25.352 6.756 45.283 14.971 57 22 3.289 1.973 3.492 2.717 5 4-1.508 1.283-1.711 2.027-5 4-11.717 7.029-31.648 15.244-57 22-50.703 13.51-121.014 22-189 22zM239 548c12.887-66.752 28.266-147.74 50-260 0 0 0.508-0.611 5-6s11.707-13.502 25-22c26.586-16.994 75.355-36 161-36 85.613 0 133.467 18.906 160 36 13.266 8.547 21.514 17.57 26 23 3.236 3.916 3.6 3.531 4 4 6.641 35.496 12.527 69.738 20 108 15.248 78.061 22.168 109.443 31 153-11.33-3.98-22.941-7.52-36-11-57.953-15.441-131.609-25-205-25s-147.047 9.559-205 25c-13.059 3.48-24.67 7.020-36 11zM480 480c52.641 0 96-43.359 96-96s-43.359-96-96-96-96 43.359-96 96 43.359 96 96 96zM480 416c-18.053 0-32-13.947-32-32s13.947-32 32-32 32 13.947 32 32-13.947 32-32 32zM307 195c3.072-15.787 11.055-56.275 12-61-0.391 1.945-0.184-0.305 6-5s17.35-10.955 32-16c29.299-10.092 72.928-17 123-17 50.105 0 94.48 6.939 124 17 14.76 5.029 25.082 11.455 31 16 2.662 2.045 4.35 3.158 5 4 1.15 8.055 7.178 36.791 12 61-38.412-19.086-93.352-34-172-34-79.58 0-134.527 15.881-173 35z" />
<glyph unicode="&#xf149;" glyph-name="bitcoin" d="M384 800h64v-96h64v96h64v-96h16c96.818 0 176-79.182 176-176 0-52.695-23.012-100.676-60-133 54.852-29.891 92-88.438 92-155 0-96.818-79.182-176-176-176h-48v-96h-64v96h-64v-96h-64v96h-128v640h128v96zM320 640v-224h272c62.221 0 112 49.779 112 112s-49.779 112-112 112h-272zM320 352v-224h304c62.221 0 112 49.779 112 112s-49.779 112-112 112h-304z" />
<glyph unicode="&#xf14a;" glyph-name="black-tie" d="M160 736h704v-704h-704v704zM224 672v-576h576v576h-576zM384 608h256l-90-116 90-248-128-116-128 116 90 248z" />
<glyph unicode="&#xf14b;" glyph-name="bold" d="M512 672h-288v-576h352c89.6 0 160 70.4 160 160 0 70.4-44.801 128-105.6 150.4 25.6 28.799 41.6 64 41.6 105.6 0 89.6-70.4 160-160 160zM288 416v192h224c54.4 0 96-41.6 96-96s-41.6-96-96-96h-224zM288 160v192h288c54.4 0 96-41.6 96-96s-41.6-96-96-96h-288zM512 736v0c124.801 0 224-99.199 224-224 0-28.801-6.4-57.6-16-83.199 48-41.602 80-105.602 80-172.801 0-124.801-99.199-224-224-224h-416v704h352zM352 544v0-64h160c19.199 0 32 12.801 32 32s-12.801 32-32 32h-160zM352 288v0-64h224c19.199 0 32 12.801 32 32s-12.801 32-32 32h-224z" />
<glyph unicode="&#xf14c;" glyph-name="bolt" d="M604 768l46-44-193-205 267-161-294-294h146v-64h-256v256h64v-146l236 236-230 139-34 20 27 29z" />
<glyph unicode="&#xf14d;" glyph-name="bomb" d="M749 836l9-63 18-125 188-27-175-175-16 2-9 1c10.16-67.939-9.893-138.893-62-191l-209-210c-60.201-60.201-147.592-68.896-217-66s-125 19-125 19l-17 5-5 17s-16.098 55.594-19 125 5.814 156.797 66 217l205 205 5 4c52.111 52.111 123.066 72.148 191 62l-1 9-2 16 130 130zM704 700l-62-62 6-39 7-55-51 20c-57.68 23.258-126.002 11.998-173-35l-209-209c-39.688-39.699-50.547-108.088-48-169 2.105-50.387 10.59-77.818 14-91 13.182-3.41 40.615-11.896 91-14 60.912-2.543 129.297 8.297 169 48l209 209c47.002 47.002 58.281 115.332 35 173l-20 52 55-8 39-6 62 62-85 12-24 3-3 24z" />
<glyph unicode="&#xf14e;" glyph-name="book" d="M320 736c93.432 0 175.428-31.393 192-38 16.572 6.607 98.568 38 192 38 103.266 0 204-42 204-42l20-9v-653h-361c-11.070-19.102-31.324-32-55-32s-43.93 12.898-55 32h-361v653l20 9s100.734 42 204 42zM320 672c-70.371 0-135.42-22.082-160-31v-516c38 12.539 92.701 28 160 28 65.824 0 124.414-16.191 160-28v516c-32.006 10.971-98.131 31-160 31zM704 672c-61.869 0-127.994-20.029-160-31v-516c35.586 11.809 94.176 28 160 28 67.299 0 122-15.461 160-28v516c-24.58 8.918-89.629 31-160 31z" />
<glyph unicode="&#xf14f;" glyph-name="bookmark" d="M224 736h576v-736l-51 38-237 178-237-178-51-38v736zM288 672v-544l205 154 19 14 19-14 205-154v544h-448z" />
<glyph unicode="&#xf150;" glyph-name="bookmark-o" d="M224 736h576v-736l-51 38-237 178-237-178-51-38v736zM288 672v-544l205 154 19 14 19-14 205-154v544h-448z" />
<glyph unicode="&#xf151;" glyph-name="briefcase" d="M512 800c59.641 0 108.775-40.814 123-96h293v-640h-832v640h293c14.225 55.186 63.359 96 123 96zM512 736c-25.924 0-45.688-12.322-56-32h112c-10.313 19.678-30.076 32-56 32zM160 640v-288h704v288h-704zM512 448c17.674 0 32-14.326 32-32s-14.326-32-32-32-32 14.326-32 32 14.326 32 32 32zM160 288v-160h704v160h-704z" />
<glyph unicode="&#xf152;" glyph-name="btc" d="M384 800h64v-96h64v96h64v-96h16c96.818 0 176-79.182 176-176 0-52.695-23.012-100.676-60-133 54.852-29.891 92-88.438 92-155 0-96.818-79.182-176-176-176h-48v-96h-64v96h-64v-96h-64v96h-128v640h128v96zM320 640v-224h272c62.221 0 112 49.779 112 112s-49.779 112-112 112h-272zM320 352v-224h304c62.221 0 112 49.779 112 112s-49.779 112-112 112h-304z" />
<glyph unicode="&#xf153;" glyph-name="bug" d="M343 791l74-74c29.537 12.492 61.496 19 95 19s65.463-6.508 95-19l74 74 46-46-62-62c46.771-35.797 83.514-88.172 107-149l78 39 28-58-88-44c5.852-28.027 10-57.016 10-87 0-10.891-0.199-21.324-1-32h97v-64h-108c-7.754-33.389-17.965-65.25-33-94l96-72-38-52-94 70c-51.77-65.787-124.332-108-207-108s-155.23 42.213-207 108l-94-70-38 52 96 72c-15.035 28.75-25.246 60.611-33 94h-108v64h97c-0.801 10.676-1 21.109-1 32 0 29.984 4.148 58.973 10 87l-88 44 28 58 78-39c23.486 60.828 60.229 113.203 107 149l-62 62zM512 672c-63.297 0-122.475-35.002-164-92 36.281-16.361 93.578-36 164-36s127.719 19.639 164 36c-41.525 56.998-100.703 92-164 92zM317 525c-18.207-41.332-29-89.232-29-141 0-148.115 86.328-265.010 192-285v383c-69.439 5.191-126.119 25.645-163 43zM707 525c-36.881-17.355-93.561-37.809-163-43v-383c105.672 19.99 192 136.885 192 285 0 51.768-10.793 99.668-29 141z" />
<glyph unicode="&#xf154;" glyph-name="building" d="M128 800h768v-832h-352v128h-64v-128h-352v832zM192 736v-704h224v128h192v-128h224v704h-640zM256 672h128v-64h-128v64zM448 672h128v-64h-128v64zM640 672h128v-64h-128v64zM256 544h128v-64h-128v64zM448 544h128v-64h-128v64zM640 544h128v-64h-128v64zM256 416h128v-64h-128v64zM448 416h128v-64h-128v64zM640 416h128v-64h-128v64zM256 288h128v-64h-128v64zM448 288h128v-64h-128v64zM640 288h128v-64h-128v64zM256 160h128v-64h-128v64zM640 160h128v-64h-128v64z" />
<glyph unicode="&#xf155;" glyph-name="building-o" d="M128 800h768v-832h-352v128h-64v-128h-352v832zM192 736v-704h224v128h192v-128h224v704h-640zM256 672h128v-64h-128v64zM448 672h128v-64h-128v64zM640 672h128v-64h-128v64zM256 544h128v-64h-128v64zM448 544h128v-64h-128v64zM640 544h128v-64h-128v64zM256 416h128v-64h-128v64zM448 416h128v-64h-128v64zM640 416h128v-64h-128v64zM256 288h128v-64h-128v64zM448 288h128v-64h-128v64zM640 288h128v-64h-128v64zM256 160h128v-64h-128v64zM640 160h128v-64h-128v64z" />
<glyph unicode="&#xf156;" glyph-name="bullhorn" d="M896 799v-293c36.984-13.383 64-48.656 64-90s-27.016-76.617-64-90v-293l-51 37s-64.213 46.172-156 93-210.78 93-314 93h-108l52-183 11-41h-194l-7 23-64 224-1 5v292h311c104.654 0 223.582 45.195 315 92s155 94 155 94zM832 680c-26.244-17.867-46.672-34.041-113-68-93.742-47.994-215.216-97.611-335-100v-192c118.645-2.344 239.972-51.029 334-99 66.486-33.92 87.535-50.139 114-68v527zM128 512v-192h192v192h-192zM139 256l45-160h61l-45 160h-61z" />
<glyph unicode="&#xf157;" glyph-name="bullseye" d="M512 800c229.56 0 416-186.439 416-416s-186.439-416-416-416-416 186.439-416 416 186.439 416 416 416zM512 768c-212.268 0-384-171.732-384-384s171.732-384 384-384 384 171.732 384 384-171.732 384-384 384zM512 704c176.352 0 320-143.648 320-320s-143.648-320-320-320-320 143.648-320 320 143.648 320 320 320zM512 640c-141.764 0-256-114.236-256-256s114.236-256 256-256 256 114.236 256 256-114.236 256-256 256zM512 576c105.66 0 192-86.34 192-192s-86.34-192-192-192-192 86.34-192 192 86.34 192 192 192zM512 512c-71.072 0-128-56.928-128-128s56.928-128 128-128 128 56.928 128 128-56.928 128-128 128zM512 448c35.346 0 64-28.654 64-64s-28.654-64-64-64-64 28.654-64 64 28.654 64 64 64z" />
<glyph unicode="&#xf158;" glyph-name="bus" d="M288 768h448c70.314 0 128-57.686 128-128v-160h64v-96h-64v-352c0-17.664-14.336-32-32-32h-96l-11 32h-426l-11-32h-96c-17.664 0-32 14.336-32 32v352h-64v96h64v160c0 70.314 57.686 128 128 128zM288 704c-35.732 0-64-28.268-64-64h576c0 35.732-28.268 64-64 64h-448zM224 576v-224h256v224h-256zM544 576v-224h256v224h-256zM224 288v-192h576v192h-576zM256 224h128v-64h-128v64zM640 224h128v-64h-128v64z" />
<glyph unicode="&#xf159;" glyph-name="buysellads" d="M358 704h302l8-22 194-576 15-42h-253l-7 24-37 136-188-153-9-7h-235l14 42 189 576zM405 640l-169-512h125l157 128h-137l12 41 85 297 7 23h55l6-24 126-465h116l-174 512h-209zM511 477l-45-157h88z" />
<glyph unicode="&#xf15a;" glyph-name="cab" d="M416 768h192l21-64h91c42.244 0 79.848-27.521 92-68l44-147 62 21 20-60-63-21 20-68c0.561-2.172 1.016-5.756 1.016-7.998 0-0.277-0.008-0.727-0.016-1.002v-224c0.055-0.689 0.098-1.809 0.098-2.5s-0.043-1.811-0.098-2.5v-27c0-17.664-14.336-32-32-32h-96l-11 32h-490l-11-32h-96c-17.664 0-32 14.336-32 32v29c-0.020 0.414-0.035 1.086-0.035 1.5s0.016 1.086 0.035 1.5v224c-0.008 0.275-0.016 0.725-0.016 1.002 0 2.242 0.455 5.826 1.016 7.998l20 68-63 21 20 60 62-21 44 147c12.146 40.504 49.756 68 92 68h91zM304 640c-14.268 0-26.891-9.295-31-23l-41-137h560l-41 137c-4.104 13.664-16.732 23-31 23h-416zM213 416l-21-70v-186h640v186l-21 70h-598zM272 384c26.51 0 48-21.49 48-48s-21.49-48-48-48-48 21.49-48 48 21.49 48 48 48zM752 384c26.51 0 48-21.49 48-48s-21.49-48-48-48-48 21.49-48 48 21.49 48 48 48zM384 288h256l40-96h-69l-14 32h-170l-14-32h-69z" />
<glyph unicode="&#xf15b;" glyph-name="calculator" d="M160 800h640v-832h-640v832zM224 736v-704h512v704h-512zM288 672h384v-192h-384v192zM352 608v-64h256v64h-256zM320 416h64v-64h-64v64zM448 416h64v-64h-64v64zM576 416h64v-64h-64v64zM320 288h64v-64h-64v64zM448 288h64v-64h-64v64zM576 288h64v-64h-64v64zM320 160h64v-64h-64v64zM448 160h64v-64h-64v64zM576 160h64v-64h-64v64z" />
<glyph unicode="&#xf15c;" glyph-name="calendar" d="M288 768h64v-32h320v32h64v-32h128v-704h-704v704h128v32zM224 672v-64h576v64h-64v-32h-64v32h-320v-32h-64v32h-64zM224 544v-448h576v448h-576zM416 480h64v-64h-64v64zM544 480h64v-64h-64v64zM672 480h64v-64h-64v64zM288 352h64v-64h-64v64zM416 352h64v-64h-64v64zM544 352h64v-64h-64v64zM672 352h64v-64h-64v64zM288 224h64v-64h-64v64zM416 224h64v-64h-64v64zM544 224h64v-64h-64v64z" />
<glyph unicode="&#xf15d;" glyph-name="calendar-check-o" d="M288 736h64v-32h320v32h64v-32h128v-704h-704v704h128v32zM224 640v-64h576v64h-64v-32h-64v32h-320v-32h-64v32h-64zM224 512v-448h576v448h-576zM649 439l46-46-192-192-23-22-23 22-96 96 46 46 73-73z" />
<glyph unicode="&#xf15e;" glyph-name="calendar-minus-o" d="M288 736h64v-32h320v32h64v-32h128v-704h-704v704h128v32zM224 640v-64h576v64h-64v-32h-64v32h-320v-32h-64v32h-64zM224 512v-448h576v448h-576zM352 320h320v-64h-320v64z" />
<glyph unicode="&#xf15f;" glyph-name="calendar-o" d="M288 768h64v-32h320v32h64v-32h128v-704h-704v704h128v32zM224 672v-64h576v64h-64v-32h-64v32h-320v-32h-64v32h-64zM224 544v-448h576v448h-576zM416 480h64v-64h-64v64zM544 480h64v-64h-64v64zM672 480h64v-64h-64v64zM288 352h64v-64h-64v64zM416 352h64v-64h-64v64zM544 352h64v-64h-64v64zM672 352h64v-64h-64v64zM288 224h64v-64h-64v64zM416 224h64v-64h-64v64zM544 224h64v-64h-64v64z" />
<glyph unicode="&#xf160;" glyph-name="calendar-plus-o" d="M288 736h64v-32h320v32h64v-32h128v-704h-704v704h128v32zM224 640v-64h576v64h-64v-32h-64v32h-320v-32h-64v32h-64zM224 512v-448h576v448h-576zM480 448h64v-128h128v-64h-128v-128h-64v128h-128v64h128v128z" />
<glyph unicode="&#xf161;" glyph-name="calendar-times-o" d="M288 736h64v-32h320v32h64v-32h128v-704h-704v704h128v32zM224 640v-64h576v64h-64v-32h-64v32h-320v-32h-64v32h-64zM224 512v-448h576v448h-576zM423 423l89-89 89 89 46-46-89-89 89-89-46-46-89 89-89-89-46 46 89 89-89 89z" />
<glyph unicode="&#xf162;" glyph-name="camera" d="M368 704h288l10-13 38-51h224v-576h-832v576h224l38 51zM400 640l-38-51-10-13h-192v-448h704v448h-192l-10 13-38 51h-224zM256 544c17.674 0 32-14.326 32-32s-14.326-32-32-32-32 14.326-32 32 14.326 32 32 32zM512 544c105.66 0 192-86.34 192-192s-86.34-192-192-192-192 86.34-192 192 86.34 192 192 192zM512 480c-71.072 0-128-56.928-128-128s56.928-128 128-128 128 56.928 128 128-56.928 128-128 128z" />
<glyph unicode="&#xf163;" glyph-name="camera-retro" d="M368 704h288l10-13 38-51h224v-576h-832v576h64v32h128v-32h32l38 51zM400 640l-38-51-10-13h-192v-128h186c33.355 57.104 95.4 96 166 96s132.645-38.896 166-96h186v128h-192l-10 13-38 51h-224zM736 544h64v-64h-64v64zM512 480c-71.072 0-128-56.928-128-128s56.928-128 128-128 128 56.928 128 128-56.928 128-128 128zM160 384v-256h704v256h-163c1.727-10.307 3-21.221 3-32 0-105.66-86.34-192-192-192s-192 86.34-192 192c0 10.779 1.273 21.693 3 32h-163z" />
<glyph unicode="&#xf164;" glyph-name="car" d="M304 704h416c42.244 0 79.848-27.521 92-68l44-147 62 21 20-60-63-21 20-68c0.561-2.172 1.016-5.756 1.016-7.998 0-0.277-0.008-0.727-0.016-1.002v-224c0.055-0.689 0.098-1.809 0.098-2.5s-0.043-1.811-0.098-2.5v-27c0-17.664-14.336-32-32-32h-96l-11 32h-490l-11-32h-96c-17.664 0-32 14.336-32 32v29c-0.020 0.414-0.035 1.086-0.035 1.5s0.016 1.086 0.035 1.5v224c-0.008 0.275-0.016 0.725-0.016 1.002 0 2.242 0.455 5.826 1.016 7.998l20 68-63 21 20 60 62-21 44 147c12.146 40.504 49.756 68 92 68zM304 640c-14.268 0-26.891-9.295-31-23l-41-137h560l-41 137c-4.104 13.664-16.732 23-31 23h-416zM213 416l-21-70v-186h640v186l-21 70h-598zM272 384c26.51 0 48-21.49 48-48s-21.49-48-48-48-48 21.49-48 48 21.49 48 48 48zM752 384c26.51 0 48-21.49 48-48s-21.49-48-48-48-48 21.49-48 48 21.49 48 48 48zM384 288h256l40-96h-69l-14 32h-170l-14-32h-69z" />
<glyph unicode="&#xf165;" glyph-name="caret-down" d="M115 512h794l-54-55-320-320-23-22-23 22-320 320zM270 448l242-242 242 242h-484z" />
<glyph unicode="&#xf166;" glyph-name="caret-left" d="M640 749v-730l-55 54-288 288-22 23 22 23 288 288zM576 594l-210-210 210-210v420z" />
<glyph unicode="&#xf167;" glyph-name="caret-right" d="M384 749l55-54 288-288 22-23-22-23-288-288-55-54v730zM448 594v-420l210 210z" />
<glyph unicode="&#xf168;" glyph-name="caret-square-o-down" d="M160 736h704v-704h-704v704zM224 672v-576h576v576h-576zM343 487l169-169 169 169 46-46-192-192-23-22-23 22-192 192z" />
<glyph unicode="&#xf169;" glyph-name="caret-square-o-left" d="M160 736h704v-704h-704v704zM224 672v-576h576v576h-576zM569 599l46-46-169-169 169-169-46-46-192 192-22 23 22 23z" />
<glyph unicode="&#xf16a;" glyph-name="caret-square-o-right" d="M160 736h704v-704h-704v704zM224 672v-576h576v576h-576zM455 599l192-192 22-23-22-23-192-192-46 46 169 169-169 169z" />
<glyph unicode="&#xf16b;" glyph-name="caret-square-o-up" d="M160 736h704v-704h-704v704zM224 672v-576h576v576h-576zM512 541l23-22 192-192-46-46-169 169-169-169-46 46 192 192z" />
<glyph unicode="&#xf16c;" glyph-name="caret-up" d="M512 621l23-22 320-320 54-55h-794l54 55 320 320zM512 530l-242-242h484z" />
<glyph unicode="&#xf16d;" glyph-name="cart-arrow-down" d="M128 672h71c29.377 0 54.896-19.52 62-48l84-336h399l77 288h67l-83-305c-7.615-27.84-32.137-47-61-47h-399c-29.377 0-54.863 19.52-62 48l-84 336h-71c-17.664 0-32 14.336-32 32s14.336 32 32 32zM704 224c52.641 0 96-43.359 96-96s-43.359-96-96-96-96 43.359-96 96 43.359 96 96 96zM416 224c52.641 0 96-43.359 96-96s-43.359-96-96-96-96 43.359-96 96 43.359 96 96 96zM512 672h64v-160h96l-128-128-128 128h96v160zM416 160c-18.053 0-32-13.947-32-32s13.947-32 32-32 32 13.947 32 32-13.947 32-32 32zM704 160c-18.053 0-32-13.947-32-32s13.947-32 32-32 32 13.947 32 32-13.947 32-32 32z" />
<glyph unicode="&#xf16e;" glyph-name="cart-plus" d="M128 672h71c29.377 0 54.896-19.52 62-48l84-336h399l77 288h67l-83-305c-7.615-27.84-32.137-47-61-47h-399c-29.377 0-54.863 19.52-62 48l-84 336h-71c-17.664 0-32 14.336-32 32s14.336 32 32 32zM704 224c52.641 0 96-43.359 96-96s-43.359-96-96-96-96 43.359-96 96 43.359 96 96 96zM416 224c52.641 0 96-43.359 96-96s-43.359-96-96-96-96 43.359-96 96 43.359 96 96 96zM512 672h64v-96h96v-64h-96v-96h-64v96h-96v64h96v96zM416 160c-18.053 0-32-13.947-32-32s13.947-32 32-32 32 13.947 32 32-13.947 32-32 32zM704 160c-18.053 0-32-13.947-32-32s13.947-32 32-32 32 13.947 32 32-13.947 32-32 32z" />
<glyph unicode="&#xf16f;" glyph-name="cc" d="M64 704h896v-573h-896v573zM128 640v-445h768v445h-768zM384 576c38.193 0 72.895-14.104 100-36l-40-50c-16.863 13.623-37.33 22-60 22-53.391 0-96-42.609-96-96s42.609-96 96-96c22.67 0 43.137 8.377 60 22l40-50c-27.105-21.896-61.807-36-100-36-87.984 0-160 72.016-160 160s72.016 160 160 160zM704 576c38.193 0 72.895-14.104 100-36l-40-50c-16.863 13.623-37.33 22-60 22-53.391 0-96-42.609-96-96s42.609-96 96-96c22.67 0 43.137 8.377 60 22l40-50c-27.105-21.896-61.807-36-100-36-87.984 0-160 72.016-160 160s72.016 160 160 160z" />
<glyph unicode="&#xf170;" glyph-name="cc-amex" d="M160 704h704c52.639 0 96-43.361 96-96v-448c0-52.639-43.361-96-96-96h-704c-52.639 0-96 43.361-96 96v448c0 52.639 43.361 96 96 96zM160 640c-18.080 0-32-13.92-32-32v-448c0-18.080 13.92-32 32-32h704c18.080 0 32 13.92 32 32v448c0 18.080-13.92 32-32 32h-704zM226 472h48l62-167v167h62l44-119 44 119h57v-176h-35v128l-49-128h-35l-48 132v-132h-75l-13 40h-75l-13-40h-40zM591 472h145l36-53 44 53h48l-66-88 66-88h-44l-44 57-44-57h-141v176zM248 437l-22-62h44zM626 432v-30h80v-36h-80v-35h84l40 53-36 48h-88z" />
<glyph unicode="&#xf171;" glyph-name="cc-diners-club" d="M160 704h704c52.639 0 96-43.361 96-96v-448c0-52.639-43.361-96-96-96h-704c-52.639 0-96 43.361-96 96v448c0 52.639 43.361 96 96 96zM160 640c-18.080 0-32-13.92-32-32v-448c0-18.080 13.92-32 32-32h704c18.080 0 32 13.92 32 32v448c0 18.080-13.92 32-32 32h-704zM480 576h64c106.049 0 192-85.951 192-192s-85.951-192-192-192h-64c-105.66 0-192 86.34-192 192s86.34 192 192 192zM480 512c-71.072 0-128-56.928-128-128s56.928-128 128-128 128 56.928 128 128-56.928 128-128 128zM454 459v-150c-31.137 10.943-54 40.119-54 75s22.863 64.057 54 75zM506 459c31.137-10.943 54-40.119 54-75s-22.863-64.023-54-75v150z" />
<glyph unicode="&#xf172;" glyph-name="cc-discover" d="M160 704h704c52.639 0 96-43.361 96-96v-448c0-52.639-43.361-96-96-96h-704c-52.639 0-96 43.361-96 96v448c0 52.639 43.361 96 96 96zM160 640c-18.080 0-32-13.92-32-32v-448c0-18.080 13.92-32 32-32h704c18.080 0 32 13.92 32 32v448c0 18.080-13.92 32-32 32h-704zM334 443c12.385 0 24.527-4.713 34-13l-12-15c-5.729 6.432-11.408 9-18 9-9.504 0-16-4.896-16-12 0-6.080 3.783-9.104 17-14 25.057-9.184 31.969-18.049 32-36 0-21.855-15.119-37-38-37-16.768 0-29.855 7.119-40 22l15 13c5.057-9.824 13.504-15 24-15 9.824 0 17 6.848 17 16 0 10.912-10 13.488-22 18-20.576 7.744-28 15.447-28 31 0 18.465 15.031 33 35 33zM438 443c9.473 0 18.336-1.104 28-6v-26c-9.152 8.961-17.504 12-28 12-20.641 0-37-16.336-37-38 0-22.848 15.824-39 38-39 9.984 0 18.199 3.199 27 12v-26c-10.016-4.736-18.527-7-28-7-33.535 0-60 25.816-60 59 0 32.832 26.656 58.936 60 59zM531 443c32.52 0 59-26.482 59-59 0-32.52-26.48-59-59-59-32.518 0-59 26.48-59 59 0 32.518 26.482 59 59 59zM160 441h32c35.713 0 61-23.721 61-57 0-17.6-11.881-56-61-56h-32v113zM263 441h22v-113h-22v113zM586 441h24l30-76 31 76h24l-49-116h-12zM705 441h62v-19h-40v-25h39v-19h-39v-31h40v-19h-62v113zM782 441h32c25.408 0 40-11.848 40-33 0-17.279-9.393-28.641-26-32l36-48h-27l-31 45h-2v-45h-22v113zM804 423v-34h6c14.080 0 22 5.641 22 17 0 10.977-8.271 17-22 17h-6zM182 422v-75h6c39.648 0 41.969 28.488 42 37 0 17.76-10.984 38-41 38h-7z" />
<glyph unicode="&#xf173;" glyph-name="cc-jcb" d="M160 704h704c52.639 0 96-43.361 96-96v-448c0-52.639-43.361-96-96-96h-704c-52.639 0-96 43.361-96 96v448c0 52.639 43.361 96 96 96zM160 640c-18.080 0-32-13.92-32-32v-448c0-18.080 13.92-32 32-32h704c18.080 0 32 13.92 32 32v448c0 18.080-13.92 32-32 32h-704zM261 544h123v-254c0-37.375-35.312-66-66-66h-126v252c0 43.168 29.703 68 69 68zM485 544h123v-252c0-37.279-35.408-66-66-66h-126v250c0 43.008 29.832 68 69 68zM709 544h123v-252c0-37.248-36.473-66-67-66h-125v250c0 42.977 29.863 68 69 68zM492 448c-28.641 0-53-25.729-53-56 0-30.305 24.359-55 53-55h92v19c-21.984-5.119-43.473-7-54-7-22.943 0-41 18.713-41 43 0 24.225 18.057 44 41 44 10.527 0 32.016-2.912 54-8v20h-92zM667 448v-110h120c16.225 0 29 13.664 29 28 0 14.305-12.744 27-29 27 14.336 0 24 13.695 24 28 0 14.336-11.664 27-26 27h-118zM303 447v-62c0-18.24-14.84-33-35-33-18.207 0-34.119 11.68-37 28h-24c6.721-26.848 38.512-48 74-48 32.576 0 77 18.473 77 53v62h-55zM712 437h38c9.535 0 18-9.465 18-19s-8.465-18-18-18h-38v37zM712 386h39c9.568 0 18-9.432 18-19 0-9.504-8.432-18-18-18h-39v37z" />
<glyph unicode="&#xf174;" glyph-name="cc-mastercard" d="M160 704h704c52.639 0 96-43.361 96-96v-448c0-52.639-43.361-96-96-96h-704c-52.639 0-96 43.361-96 96v448c0 52.639 43.361 96 96 96zM160 640c-18.080 0-32-13.92-32-32v-448c0-18.080 13.92-32 32-32h704c18.080 0 32 13.92 32 32v448c0 18.080-13.92 32-32 32h-704zM384 608c47.545 0 91.66-14.547 128-40 36.205 25.357 80.377 40 128 40 123.338 0 224-100.662 224-224s-100.662-224-224-224c-47.623 0-91.795 14.643-128 40-36.34-25.453-80.455-40-128-40-123.332 0-224 100.668-224 224s100.668 224 224 224zM384 544c-88.744 0-160-71.256-160-160s71.256-160 160-160c41.018 0 77.764 15.865 106 41-13.068 16.436-23.83 34.842-31 55h71c4.459 10.189 8.727 20.812 11 32h-90c-1.76 10.432-3 21.057-3 32s1.207 21.568 3 32h90c-2.273 11.188-6.541 21.811-11 32h-71c7.17 20.158 17.918 38.564 31 55-28.236 25.135-64.982 41-106 41zM640 544c-29.281 0-56.393-8.285-80-22 30.107-38.15 48-85.844 48-138s-17.893-99.85-48-138c23.607-13.715 50.719-22 80-22 88.758 0 160 71.242 160 160s-71.242 160-160 160z" />
<glyph unicode="&#xf175;" glyph-name="cc-paypal" d="M285 736h293c47.102 0 97.566-17.131 134-55 19.684-20.459 34.186-47.422 41-79 35.451-8.773 69.707-27.27 95-58 31.184-37.891 46.127-93.898 32-160-26.865-125.803-132.588-204-253-204h-86l-33-154-5-26h-223l9 39 19 89h-156l9 39 118 544zM337 672l-105-480h91l33 155 5 25h138c94.115 0 168.865 55.035 190 154 11.863 55.49-0.984 88.117-23 111s-56.637 35-88 35h-241zM418 625h102c28.391 0 55.105-13.223 71-35 15.525-21.271 20.055-49.953 13-78-0.166-0.666 0.182-1.334 0-2h-1c-13.973-55.637-63.137-97-120-97h-113l9 39 33 148zM469 561l-19-84h33c22.434 0 52.984 23.090 59 49v1c3.428 12.6 0.713 20.912-3 26s-8.99 8-19 8h-51zM755 533c-0.867-6.971-1.453-13.77-3-21-26.865-125.803-132.588-204-253-204h-86l-33-154-5-26h-1l-14-64h91l33 155 5 25h138c94.115 0 168.865 55.035 190 154 10.93 51.146 0.633 82.361-18 105-11.281 13.707-27.066 23.074-44 30z" />
<glyph unicode="&#xf176;" glyph-name="cc-stripe" d="M160 704h704c52.639 0 96-43.361 96-96v-448c0-52.639-43.361-96-96-96h-704c-52.639 0-96 43.361-96 96v448c0 52.639 43.361 96 96 96zM160 640c-18.080 0-32-13.92-32-32v-448c0-18.080 13.92-32 32-32h704c18.080 0 32 13.92 32 32v448c0 18.080-13.92 32-32 32h-704zM528 530c14.943 0 27-11.832 27-27 0-14.977-12.023-27-27-27-15.168 0-27 12.023-27 27 0 15.168 11.832 27 27 27zM354 506v-46h33l-6-39h-27v-67c0-11.871 4.824-17 15-17 4.801 0 11.896 1.168 15 2v-40c-5.6-1.473-13.688-4-27-4-17.248 0-29.488 3.152-38 10-10.176 8.287-15 21.48-15 41v75h-22l6 36 16 3 6 39zM221 463c24.736 0 42.264-6.84 51-11l-6-39c-11.008 5.408-27.416 12-43 12-8.545 0-13-4.176-13-10 0-6.848 8.832-10.4 24-16 28.48-10.176 46.031-22.104 46-51 0-17.439-6.352-31.848-18-41-10.367-8.32-25.504-12-44-12-23.264 0-45.936 7.152-58 14l6 39c14.111-8.32 35.912-15 49-15 10.592 0 16 4.152 16 11 0 7.072-5.92 11.568-24 18-28.064 10.176-45 21.744-45 50 0 15.584 5.184 29.072 16 38 10.4 8.512 25.527 13 43 13zM663 463c16.191 0 28.848-6.16 38-18 10.367-13.313 14.969-34.576 15-62 0-30.977-7.080-53.832-21-69-14.561-15.775-33.104-19-46-19-7.264 0-15.096 0.504-23 3v-51l-52-9v222h46l2-17c12.256 13.088 26.023 20 41 20zM798 463c21.408 0 37.768-7.439 49-22 11.039-14.336 17-35.24 17-61 0-3.744-0.713-15.535-1-18h-85c1.057-10.592 3.592-17.424 9-22 4.992-4.352 12.016-7 22-7 16.641 0 31.328 4.152 44 11l6-36c-12.863-8.545-32.984-13-55-13-23.871 0-43.104 5.52-56 18-14.336 13.92-21 35.912-21 65 0 51.969 27.16 85 71 85zM480 462c3.137 0 6.416-0.168 10-1v-48c-3.553 0.607-6.313 1-9 1-12.48 0-21.568-3.096-28-11v-105h-52v162h45l3-20c4.576 13.695 16.439 22 31 22zM502 460h52v-162h-52v162zM797 428c-11.84 0-17.561-10.928-19-34h38c-0.832 22.881-7.352 34-19 34zM645 423c-2.881 0-10.264-0.848-19-10v-77c4.16-2.080 8.816-3 14-3 7.488 0 13.84 4.096 18 12 4.768 8.32 7.031 21.225 7 37 0 27.615-6.912 41-20 41z" />
<glyph unicode="&#xf177;" glyph-name="cc-visa" d="M160 704h704c52.639 0 96-43.361 96-96v-448c0-52.639-43.361-96-96-96h-704c-52.639 0-96 43.361-96 96v448c0 52.639 43.361 96 96 96zM160 640c-18.080 0-32-13.92-32-32v-448c0-18.080 13.92-32 32-32h704c18.080 0 32 13.92 32 32v448c0 18.080-13.92 32-32 32h-704zM621 500c27.168 0 55-11 55-11l-10-49s-21.023 15-40 15c-29.152 0-40-10.199-40-23 0-25.057 82-28.775 82-85 0-46.752-59.016-79-101-79-42.016 0-63 13-63 13l10 46s22.080-12 56-12c33.855 0 39 13.889 39 20 0 35.871-82 26.207-82 96 0 38.592 32.367 69 94 69zM358 496h63l-90-221h-64l-47 179s49.439-25.52 80-94c1.313-8.32 4-22 4-22zM444 496h59l-35-221h-59zM762 496h62l45-221h-53l-6 31h-74l-12-31h-58zM155 495h90c23.199 0 32-22 32-22l20-100c-26.912 86.688-142 122-142 122zM784 432l-31-83h48z" />
<glyph unicode="&#xf178;" glyph-name="certificate" d="M512 800c19.967 0 39.936-6.811 57-19l53-37 60-8h1c42.064-5.107 75.275-39.123 81-81 0.105-0.773 0.914-1.223 1-2h-1l12-60 37-53c24.379-34.129 23.352-79.236 1-115v-1l-1-1-37-53-8-60 100-152 33-49h-153l-37-86-23-55-33 50-101 152c-26.189-12.127-56.914-11.17-84 0l-101-152-33-50-23 55-37 86h-153l33 49 103 157-10 55-38 53c-24.379 34.129-23.352 80.236-1 116v1l1 1 37 48 8 62v1l1 1c9.068 40.805 41.195 72.932 82 82l1 1h1l61 8 53 37c17.064 12.189 37.033 19 57 19zM512 735c-7.332 0-14.664-2.189-20-6l-64-46-8-1-67-9c-0.494-0.109-0.514-0.875-1-1-15.58-4.010-27.99-16.42-32-32-0.125-0.486-0.891-0.506-1-1l-9-67-1-9-5-6-40-52c-9.648-15.438-8.621-34.33-1-45l41-57 5-6 1-8 13-73v-2c0.492-4.424 2.012-8.51 4-12 4.447-7.807 12.105-12.9 22-14h1l70-10 9-1 6-5 52-40c15.438-9.648 34.33-8.621 45-1l57 41 6 5 8 1 73 13h2c8.004 0.889 14.385 4.545 19 10v1l2 1c2.674 3.91 4.414 8.73 5 14v1l10 70 1 8 45 63c9.648 15.438 8.621 33.33 1 44l-41 57-5 6-1 7-13 71v2c-1.592 14.32-11.68 24.408-26 26h-1l-70 10-8 1-7 5-57 41c-5.336 3.811-12.668 6-20 6zM733 248c-13.088-10.33-28.805-17.648-46-20-0.773-0.105-1.223-0.914-2-1v1l-63-11-15-11 68-104 22 51 8 20h77zM291 247l-49-74h77l8-20 22-51 68 103-14 11-61 8c-0.314 0.035-0.686-0.039-1 0-19.033 2.311-36.318 10.801-50 23z" />
<glyph unicode="&#xf179;" glyph-name="chain" d="M696 768c53.473 0 103.207-21.145 141-59 37.824-37.824 59-87.527 59-141s-21.176-104.176-59-142l-47-47c-37.793-37.855-88.527-59-142-59-25.375 0-50.088 4.881-73 14l52 52c6.881-1.217 13.832-2 21-2 36.416 0 71.24 14.24 97 40l47 47c53.119 53.119 53.119 139.912 0 193-25.729 25.76-59.615 40-96 40-36.416 0-71.271-14.207-97-40l-47-47c-31.904-31.871-44.527-76.561-38-118l-52-52c-9.119 22.912-14 47.592-14 73 0 53.473 21.176 104.176 59 142l47 47c37.793 37.855 88.527 59 142 59zM617 535l46-46-256-256-46 46zM376 448c25.377 0 50.088-4.881 73-14l-52-52c-6.881 1.217-13.832 2-21 2-36.416 0-71.24-14.24-97-40l-47-47c-53.119-53.119-53.119-139.912 0-193 25.729-25.76 59.615-40 96-40 36.416 0 71.271 14.207 97 40l47 47c31.904 31.871 44.527 76.561 38 118l52 52c9.119-22.912 14-47.592 14-73 0-53.473-21.176-104.176-59-142l-47-47c-37.793-37.855-88.527-59-142-59s-103.207 21.145-141 59c-37.824 37.824-59 87.527-59 141s21.176 104.176 59 142l47 47c37.793 37.855 88.527 59 142 59z" />
<glyph unicode="&#xf17a;" glyph-name="chain-broken" d="M696 768c51.305 0 102.039-20.039 141-59 77.922-77.922 77.922-205.078 0-283l-47-47c-32.488-32.525-73.736-51.789-116-57l-8 64c28.84 3.557 55.832 15.807 78 38h1l47 47c53.469 53.469 53.469 139.531 0 193s-139.531 53.469-193 0l-47-47c-22.135-22.135-34.432-50.033-38-79l-64 8c5.199 42.201 24.479 83.479 57 116l47 47c38.961 38.961 90.695 59 142 59zM247 695l128-128-46-46-128 128zM350 446l8-64c-28.84-3.557-55.832-15.807-78-38h-1l-47-47c-53.469-53.469-53.469-139.531 0-193s139.531-53.469 193 0l47 47c22.135 22.135 34.432 50.033 38 79l64-8c-5.199-42.201-24.479-83.479-57-116l-47-47c-77.922-77.922-205.078-77.922-283 0s-77.922 205.078 0 283l47 47c32.488 32.525 73.736 51.789 116 57zM695 247l128-128-46-46-128 128z" />
<glyph unicode="&#xf17b;" glyph-name="check" d="M905 695l46-46-576-576-23-22-23 22-256 256 46 46 233-233z" />
<glyph unicode="&#xf17c;" glyph-name="check-circle" d="M512 800c112 0 214.4-44.4 288-118l-45-45c-60.801 60.801-147 99-243 99-195.199 0-352-156.801-352-352s156.801-352 352-352 352 156.801 352 352c0 28.801-3.6 54.4-10 80l52 51c16-41.6 22-86.199 22-131 0-230.4-185.6-416-416-416s-416 185.6-416 416 185.6 416 416 416zM873 663l46-46-384-384-23-22-23 22-160 160 46 46 137-137z" />
<glyph unicode="&#xf17d;" glyph-name="check-circle-o" d="M512 800c112 0 214.4-44.4 288-118l-45-45c-60.801 60.801-147 99-243 99-195.199 0-352-156.801-352-352s156.801-352 352-352 352 156.801 352 352c0 28.801-3.6 54.4-10 80l52 51c16-41.6 22-86.199 22-131 0-230.4-185.6-416-416-416s-416 185.6-416 416 185.6 416 416 416zM873 663l46-46-384-384-23-22-23 22-160 160 46 46 137-137z" />
<glyph unicode="&#xf17e;" glyph-name="check-square" d="M128 768h762l-64-64h-634v-640h640v378l64 64v-506h-768v768zM873 663l46-46-384-384-23-22-23 22-160 160 46 46 137-137z" />
<glyph unicode="&#xf17f;" glyph-name="check-square-o" d="M128 768h762l-64-64h-634v-640h640v378l64 64v-506h-768v768zM873 663l46-46-384-384-23-22-23 22-160 160 46 46 137-137z" />
<glyph unicode="&#xf180;" glyph-name="chevron-circle-down" d="M512 800c229.372 0 416-186.629 416-416s-186.629-416-416-416-416 186.629-416 416 186.629 416 416 416zM512 736c-194.783 0-352-157.217-352-352s157.217-352 352-352 352 157.217 352 352-157.217 352-352 352zM343 487l169-169 169 169 46-46-192-192-23-22-23 22-192 192z" />
<glyph unicode="&#xf181;" glyph-name="chevron-circle-left" d="M512 800c229.372 0 416-186.629 416-416s-186.629-416-416-416-416 186.629-416 416 186.629 416 416 416zM512 736c-194.783 0-352-157.217-352-352s157.217-352 352-352 352 157.217 352 352-157.217 352-352 352zM569 599l46-46-169-169 169-169-46-46-192 192-22 23 22 23z" />
<glyph unicode="&#xf182;" glyph-name="chevron-circle-right" d="M512 800c229.372 0 416-186.629 416-416s-186.629-416-416-416-416 186.629-416 416 186.629 416 416 416zM512 736c-194.783 0-352-157.217-352-352s157.217-352 352-352 352 157.217 352 352-157.217 352-352 352zM455 599l192-192 22-23-22-23-192-192-46 46 169 169-169 169z" />
<glyph unicode="&#xf183;" glyph-name="chevron-circle-up" d="M512 800c229.372 0 416-186.629 416-416s-186.629-416-416-416-416 186.629-416 416 186.629 416 416 416zM512 736c-194.783 0-352-157.217-352-352s157.217-352 352-352 352 157.217 352 352-157.217 352-352 352zM512 541l23-22 192-192-46-46-169 169-169-169-46 46 192 192z" />
<glyph unicode="&#xf184;" glyph-name="chevron-down" d="M221 685l291-291 291 291 23-22 125-125 22-23-461-461-461 461 22 23 125 125zM220 594l-78-78 370-371 370 371-78 78-269-268-23-22-23 22z" />
<glyph unicode="&#xf185;" glyph-name="chevron-left" d="M632 813l23-22 115-116 22-22-22-23-246-246 246-246 22-23-22-22-115-116-23-22-23 22-384 384-22 23 22 23 384 384zM632 722l-338-338 338-338 70 70-269 268 23 23 246 245z" />
<glyph unicode="&#xf186;" glyph-name="chevron-right" d="M392 813l23-22 384-384 22-23-22-23-384-384-23-22-23 22-115 116-22 22 22 23 246 246-246 246-22 23 22 22 115 116zM392 722l-70-70 269-268-23-23-246-245 70-70 338 338z" />
<glyph unicode="&#xf187;" glyph-name="chevron-up" d="M512 714l461-461-22-23-125-125-23-22-291 291-291-291-23 22-125 125-22 23 438 438zM512 623l-370-371 78-78 269 268 23 22 23-22 269-268 78 78z" />
<glyph unicode="&#xf188;" glyph-name="child" d="M384 800c70.459 0 121.324-32.221 145-74 0.844 1.309 1.076 2.691 2 4 14.486 20.523 42.066 38 77 38v-64c-14.48 0-18.801-3.537-23-9 123.039-29.465 217.986-131.354 242-258 38.186-12.705 69-42.783 69-85 0-43.678-32.775-74.561-73-86-26.113-150.438-154.244-266-311-266s-284.886 115.562-311 266c-40.225 11.439-73 42.322-73 86s32.775 74.561 73 86c23.723 136.664 131.918 244.39 269 263-12.477 18.363-38.139 35-86 35v64zM512 640c-130.969 0-238.764-99.877-253-228l-3-28h-32c-17.746 0-32-14.254-32-32s14.254-32 32-32h32l3-28c14.236-128.123 122.031-228 253-228s238.764 99.877 253 228l3 28h32c17.746 0 32 14.254 32 32s-14.254 32-32 32h-28l-4 28c-17.148 128.609-125.031 228-256 228zM400 384c26.51 0 48-21.49 48-48s-21.49-48-48-48-48 21.49-48 48 21.49 48 48 48zM624 384c26.51 0 48-21.49 48-48s-21.49-48-48-48-48 21.49-48 48 21.49 48 48 48z" />
<glyph unicode="&#xf189;" glyph-name="chrome" d="M512 768c211.7 0 384-172.301 384-384s-172.301-384-384-384-384 172.301-384 384 172.301 384 384 384zM512 704c-97.051 0-183.381-43.068-242-111l114-114c29.25 39.045 75.758 65 128 65 25.23 0 48.717-6.479 70-17h216c-52.369 105.125-160.283 177-286 177zM244 558c-32.469-50.080-52-109.697-52-174 0-156.717 111.531-287.158 260-315l40 156c-73.535 9.393-131.877 69.807-139 144zM815 488l-156-43c7.896-18.893 13-39.334 13-61 0-53.73-27.053-101.945-68-131l-109-188c5.627-0.293 11.299-1 17-1 177.109 0 320 142.891 320 320 0 36.494-5.818 71.363-17 104zM512 480c-53.398 0-96-42.602-96-96s42.602-96 96-96 96 42.602 96 96c0 33.373-16.482 62.826-42 80-15.311 10.305-33.977 16-54 16z" />
<glyph unicode="&#xf18a;" glyph-name="circle" d="M512 768c211.7 0 384-172.301 384-384s-172.301-384-384-384-384 172.301-384 384 172.301 384 384 384zM512 704c-177.109 0-320-142.891-320-320s142.891-320 320-320 320 142.891 320 320-142.891 320-320 320z" />
<glyph unicode="&#xf18b;" glyph-name="circle-o" d="M512 768c211.7 0 384-172.301 384-384s-172.301-384-384-384-384 172.301-384 384 172.301 384 384 384zM512 704c-177.109 0-320-142.891-320-320s142.891-320 320-320 320 142.891 320 320-142.891 320-320 320z" />
<glyph unicode="&#xf18c;" glyph-name="circle-o-notch" d="M576 762.208c181.312-30.592 320-188.318 320-378.208 0-211.744-172.256-384-384-384s-384 172.256-384 384c0 189.889 138.688 347.616 320 378.208v-64.672c-145.889-29.727-256-159.008-256-313.536 0-176.447 143.553-320 320-320s320 143.553 320 320c0 154.496-110.111 283.808-256 313.536v64.672z" />
<glyph unicode="&#xf18d;" glyph-name="circle-thin" d="M512 768c211.888 0 384-172.111 384-384s-172.111-384-384-384-384 172.111-384 384 172.111 384 384 384zM512 736c-194.594 0-352-157.406-352-352s157.406-352 352-352 352 157.406 352 352-157.406 352-352 352z" />
<glyph unicode="&#xf18e;" glyph-name="clipboard" d="M480 800c40.289 0 68.859-28.492 83-64h237v-736h-640v736h237c14.141 35.508 42.711 64 83 64zM480 736c-17.746 0-32-14.254-32-32v-32h-96v-64h256v64h-96v32c0 17.746-14.254 32-32 32zM224 672v-608h512v608h-64v-128h-384v128h-64z" />
<glyph unicode="&#xf18f;" glyph-name="clock-o" d="M512 768c211.7 0 384-172.301 384-384s-172.301-384-384-384-384 172.301-384 384 172.301 384 384 384zM512 704c-177.109 0-320-142.891-320-320s142.891-320 320-320 320 142.891 320 320-142.891 320-320 320zM480 640h64v-224h160v-64h-224v288z" />
<glyph unicode="&#xf190;" glyph-name="clone" d="M160 736h544v-128h-64v64h-416v-416h64v-64h-128v544zM320 576h544v-544h-544v544zM384 512v-416h416v416h-416z" />
<glyph unicode="&#xf191;" glyph-name="close" d="M231 711l281-281 281 281 46-46-281-281 281-281-46-46-281 281-281-281-46 46 281 281-281 281z" />
<glyph unicode="&#xf192;" glyph-name="cloud" d="M512 736c78.443 0 146.029-41.654 186-103 12.533 2.836 24.164 7 38 7 105.652 0 192-86.348 192-192 55.35-33.752 96-90.715 96-160 0-105.652-86.348-192-192-192h-640c-105.652 0-192 86.348-192 192s86.348 192 192 192c6.748 0 12.594-1.285 19-2 17.002 38.121 46.037 66.652 85 82 22.344 100.133 109.42 176 216 176zM512 672c-80.707 0-146.607-58.764-158-136l-3-22-21-5c-35.521-8.473-64.074-36.348-72-72l-6-31-32 7c-9.535 2.148-18.686 3-28 3-71.053 0-128-56.947-128-128s56.947-128 128-128h640c71.053 0 128 56.947 128 128 0 53.174-32.293 98.484-78 118l-21 9 2 23c0.561 7.504 1 10.287 1 10 0 71.053-56.947 128-128 128-14.221 0-28.014-3.086-42-8l-27-9-12 25c-26.383 52.178-80.336 88-143 88z" />
<glyph unicode="&#xf193;" glyph-name="cloud-download" d="M512 736c108.086 0 196.477-68.189 235-162 112.863-5.822 202.568-95.547 210-208 39.656-35.254 67-85.666 67-142 0-106.361-85.639-192-192-192h-640c-106.361 0-192 85.639-192 192 0 88.023 60.279 158.195 139 181 19.096 54.371 65.584 93.406 123 103 14.516 127.818 118.193 228 250 228zM512 672c-107.842 0-192-84.156-192-192v-32h-32c-46.203 0-84.412-30.855-94-74l-4-21-21-4c-58.637-10.197-105-60.359-105-125 0-72.838 55.162-128 128-128h640c72.838 0 128 55.162 128 128 0 40.533-20.793 79.344-51 102l-13 10v16c0 88.145-71.855 160-160 160h-33l-7 23c-24.926 80.314-95.6 137-184 137zM480 512h64v-210l73 73 46-46-128-128-23-22-23 22-128 128 46 46 73-73v210z" />
<glyph unicode="&#xf194;" glyph-name="cloud-upload" d="M512 768c108.086 0 196.477-68.189 235-162 112.863-5.822 202.568-95.547 210-208 39.656-35.254 67-85.666 67-142 0-106.361-85.639-192-192-192h-640c-106.361 0-192 85.639-192 192 0 88.023 60.279 158.195 139 181 19.096 54.371 65.584 93.406 123 103 14.516 127.818 118.193 228 250 228zM512 704c-107.842 0-192-84.156-192-192v-32h-32c-46.203 0-84.412-30.855-94-74l-4-21-21-4c-58.637-10.197-105-60.359-105-125 0-72.838 55.162-128 128-128h640c72.838 0 128 55.162 128 128 0 40.533-20.793 79.344-51 102l-13 10v16c0 88.145-71.855 160-160 160h-33l-7 23c-24.926 80.314-95.6 137-184 137zM512 525l23-22 128-128-46-46-73 73v-210h-64v210l-73-73-46 46 128 128z" />
<glyph unicode="&#xf195;" glyph-name="cny" d="M230 736h76l206-331 206 331h76l-220-352h130v-64h-160v-64h160v-64h-160v-160h-64v160h-160v64h160v64h-160v64h130z" />
<glyph unicode="&#xf196;" glyph-name="code" d="M576 736h64l-192-704h-64zM254 691l52-38-202-269 202-269-52-38-216 288-14 19 14 19zM770 691l216-288 14-19-14-19-216-288-52 38 202 269-202 269z" />
<glyph unicode="&#xf197;" glyph-name="code-fork" d="M128 736h768v-704h-768v704zM192 672v-64h640v64h-640zM192 544v-448h640v448h-640zM512 480h64l-64-320h-64zM358 467l52-38-82-109 82-109-52-38-96 128-14 19 14 19zM666 467l96-128 14-19-14-19-96-128-52 38 82 109-82 109z" />
<glyph unicode="&#xf198;" glyph-name="codepen" d="M512 805l18-12 398-266v-286l-14-9-402-269-18 12-398 266v286l14 9 384 257zM480 707l-294-198 129-87 165 111v174zM544 707v-174l165-111 129 87zM512 477l-139-93 139-93 139 93zM160 450v-132l98 66zM864 450l-98-66 98-66v132zM316 346l-130-87 294-198v174zM708 346l-164-111v-174l294 198z" />
<glyph unicode="&#xf199;" glyph-name="coffee" d="M512 960h64v-128h-64v128zM640 928h64v-96h-64v96zM320 800h576v-128h64c52.654 0 96-43.346 96-96v-96c0-52.654-43.346-96-96-96h-64v-160c0-52.654-43.346-96-96-96h-384c-52.654 0-96 43.346-96 96v576zM384 736v-512c0-17.746 14.254-32 32-32h384c17.746 0 32 14.254 32 32v512h-448zM896 608v-160h64c17.746 0 32 14.254 32 32v96c0 17.746-14.254 32-32 32h-64z" />
<glyph unicode="&#xf19a;" glyph-name="cog" d="M422 800h180l5-26 19-95c30.441-11.969 58.043-28.902 83-49l93 32 25 8 13-23 64-110 13-23-19-17-72-63c2.674-16.408 6-32.691 6-50s-3.328-33.584-6-50l72-63 19-17-13-23-64-110-13-23-25 8-93 32c-24.949-20.096-52.545-37.029-83-49l-19-95-5-26h-180l-5 26-19 95c-30.441 11.969-58.043 28.902-83 49l-93-32-25-8-13 23-64 110-13 23 19 17 72 63c-2.674 16.408-6 32.691-6 50s3.326 33.592 6 50l-72 63-19 17 13 23 64 110 13 23 25-8 93-32c24.949 20.096 52.545 37.029 83 49l19 95zM474 736l-16-83-4-19-18-6c-36.42-11.355-69.393-30.564-97-56l-14-13-18 6-81 28-38-65 64-57 15-12-5-19c-4.082-18.254-6-36.889-6-56s1.918-37.746 6-56l5-19-15-12-64-57 38-65 81 28 18 6 14-13c27.6-25.428 60.605-44.643 97-56l18-6 4-19 16-83h76l16 83 4 19 18 6c36.42 11.357 69.393 30.564 97 56l14 13 18-6 81-28 38 65-64 57-14 12 4 19c4.086 18.297 6 36.889 6 56s-1.918 37.746-6 56l-5 19 15 12 64 57-38 65-81-28-18-6-14 13c-27.6 25.428-60.605 44.643-97 56l-18 6-4 19-16 83h-76zM512 544c87.986 0 160-72.014 160-160s-72.014-160-160-160-160 72.014-160 160 72.014 160 160 160zM512 480c-53.398 0-96-42.602-96-96s42.602-96 96-96 96 42.602 96 96-42.602 96-96 96z" />
<glyph unicode="&#xf19b;" glyph-name="cogs" d="M688 816h64v-45c26.512-4.668 50.75-15.158 72-30l30 30 45-45-30-30c14.842-21.25 25.332-45.488 30-72h45v-64h-45c-4.715-26.775-14.922-51.604-30-73l31-33-47-44-30 32c-20.988-14.424-44.959-24.416-71-29v-45h-64v45c-26.512 4.668-50.75 15.158-72 30l-33-34-46 46 34 33c-14.842 21.25-25.332 45.488-30 72h-45v64h45c4.584 26.041 14.576 50.012 29 71l-32 30 44 47 33-31c21.396 15.078 46.225 25.285 73 30v45zM720 710c-65.77 0-118-52.23-118-118s52.23-118 118-118 118 52.23 118 118-52.23 118-118 118zM305 521l23-58c16.955 4.236 34.775 7 53 7 18.262 0 36.029-2.725 53-7l23 58 59-24-23-58c30.217-18.266 55.748-43.889 74-74l58 23 24-59-58-23c4.236-16.916 7-34.775 7-53s-2.764-36.045-7-53l58-23-24-59-58 23c-18.215-30.459-43.76-56.527-74-75l23-57-59-24-23 57c-16.916-4.275-34.775-7-53-7-18.332 0-35.943 2.689-53 7l-23-57-59 24 23 57c-30.74 18.461-56.492 44.291-75 75l-57-23-24 59 57 23c-4.275 16.955-7 34.775-7 53s2.725 36.084 7 53l-57 23 24 59 57-23c18.473 30.24 44.541 55.785 75 74l-23 58zM381 406c-85.211 0-154-67.789-154-153s68.789-154 154-154 153 68.789 153 154-67.789 153-153 153z" />
<glyph unicode="&#xf19c;" glyph-name="columns" d="M160 736h704v-704h-704v704zM224 672v-576h256v576h-256zM544 672v-576h256v576h-256z" />
<glyph unicode="&#xf19d;" glyph-name="comment" d="M96 704h832v-640h-306l-87-87-23-22-23 22-87 87h-306v640zM160 640v-512h269l10-9 73-73 73 73 10 9h269v512h-704zM288 544h448v-64h-448v64zM288 416h448v-64h-448v64zM288 288h320v-64h-320v64z" />
<glyph unicode="&#xf19e;" glyph-name="comment-o" d="M96 704h832v-640h-306l-87-87-23-22-23 22-87 87h-306v640zM160 640v-512h269l10-9 73-73 73 73 10 9h269v512h-704zM288 544h448v-64h-448v64zM288 416h448v-64h-448v64zM288 288h320v-64h-320v64z" />
<glyph unicode="&#xf19f;" glyph-name="commenting" d="M96 704h832v-640h-306l-87-87-23-22-23 22-87 87h-306v640zM160 640v-512h269l10-9 73-73 73 73 10 9h269v512h-704zM288 544h448v-64h-448v64zM288 416h448v-64h-448v64zM288 288h320v-64h-320v64z" />
<glyph unicode="&#xf1a0;" glyph-name="commenting-o" d="M96 704h832v-640h-306l-87-87-23-22-23 22-87 87h-306v640zM160 640v-512h269l10-9 73-73 73 73 10 9h269v512h-704zM288 544h448v-64h-448v64zM288 416h448v-64h-448v64zM288 288h320v-64h-320v64z" />
<glyph unicode="&#xf1a1;" glyph-name="comments" d="M64 736h640v-512h-309l-151-121-52-42v163h-128v512zM128 672v-384h128v-93l108 86 9 7h267v384h-512zM768 608h192v-512h-128v-163l-203 163h-298l80 64h240l117-93v93h128v384h-128v64z" />
<glyph unicode="&#xf1a2;" glyph-name="comments-o" d="M64 736h640v-512h-309l-151-121-52-42v163h-128v512zM128 672v-384h128v-93l108 86 9 7h267v384h-512zM768 608h192v-512h-128v-163l-203 163h-298l80 64h240l117-93v93h128v384h-128v64z" />
<glyph unicode="&#xf1a3;" glyph-name="compass" d="M512 800c229.372 0 416-186.629 416-416s-186.629-416-416-416-416 186.629-416 416 186.629 416 416 416zM476 734c-167.23-16.92-298.914-150.225-314-318h30v-64h-30c15.205-169.092 148.908-302.794 318-318v30h64v-30c169.092 15.205 302.794 148.908 318 318h-30v64h30c-15.205 169.092-148.908 302.794-318 318v-30h-64v30c-1.316-0.119-2.688 0.133-4 0zM707 579l-118-272-272-118 118 272zM512 432c-25.6 0-48-22.4-48-48s22.4-48 48-48 48 22.4 48 48-22.4 48-48 48z" />
<glyph unicode="&#xf1a4;" glyph-name="compress" d="M905 823l46-46-298-297h275v-64h-384v384h64v-275zM96 352h384v-384h-64v275l-297-298-46 46 298 297h-275v64z" />
<glyph unicode="&#xf1a5;" glyph-name="connectdevelop" d="M293 762h438l9-16 200-349 9-16-9-16-200-349-9-16h-438l-9 16-200 349-9 16 9 16 200 349zM371 698l50-52 146 52h-196zM663 698l-217-77 70-73zM329 695l-1-2v-81l61 22zM698 689l-159-164 114-118 129 137zM296 637l-26-45 26 9v36zM413 609l-85-31v-124l47-50 119 121zM296 567l-51-18-2-4 53-57v79zM226 516l-77-135 76-132 71 73v119zM796 512l-121-128 77-79zM516 502l-119-122 115-122 119 126zM821 475l-41-198 22-23 73 127zM328 407v-52l25 26zM653 361l-119-127 17-18h183l11 51zM375 357l-47-47v-94h144l18 18zM296 277l-55-57 3-4h52v61zM772 239l-5-23h13l5 9zM262 184l34-59v59h-34zM328 184v-115l2-4 112 119h-114zM486 184l-113-120h276l-112 120h-51zM581 184l112-120 14 24 20 96h-146zM760 184l-1-5 3 5h-2z" />
<glyph unicode="&#xf1a6;" glyph-name="contao" d="M181 721h86c-38.4-32.16-98-100.344-98-215 0-35.969 2.775-63.688 7-89 10.465-62.783 40.416-195.6 48-226 1.793-7.168 24.928-88.064 76-144h-119c-29.023 0-53 22.977-53 52v570c0 29.023 23.977 52 53 52zM709 721h134c29.023 0 52.969-22.977 53-52v-570c0-29.023-23.977-52-53-52h-75c20.287 21.793 85 99.512 85 199v50l-206-46s0.76-113-113-113c-69.184 0-96.168 56.088-121 163-20.512 88.256-36 180.713-36 225 0 68.32 69.049 95 107 95 69.729 0 100-68 100-68l205 43s-28.352 79.6-80 126z" />
<glyph unicode="&#xf1a7;" glyph-name="copy" d="M128 768h512v-96h-64v32h-384v-512h160v-64h-224v640zM384 640h512v-640h-512v640zM448 576v-512h384v512h-384z" />
<glyph unicode="&#xf1a8;" glyph-name="copyright" d="M512 800c229.372 0 416-186.629 416-416s-186.629-416-416-416-416 186.629-416 416 186.629 416 416 416zM512 736c-194.783 0-352-157.217-352-352s157.217-352 352-352 352 157.217 352 352-157.217 352-352 352zM509 576c76.801 0 142.434-46.047 173-111l-58-27c-20.633 43.846-63.801 74-115 74-72.838 0-128-55.162-128-128s55.162-128 128-128c51.199 0 94.367 30.154 115 74l58-27c-30.566-64.953-96.199-111-173-111-106.361 0-192 85.639-192 192s85.639 192 192 192z" />
<glyph unicode="&#xf1a9;" glyph-name="creative-commons" d="M512 768c211.7 0 384-172.301 384-384s-172.301-384-384-384-384 172.301-384 384 172.301 384 384 384zM512 704c-177.109 0-320-142.891-320-320s142.891-320 320-320 320 142.891 320 320-142.891 320-320 320zM384 512c52.639 0 96-43.361 96-96h-64c0 18.080-13.92 32-32 32s-32-13.92-32-32v-64c0-18.080 13.92-32 32-32s32 13.92 32 32h64c0-52.639-43.361-96-96-96s-96 43.361-96 96v64c0 52.639 43.361 96 96 96zM640 512c52.639 0 96-43.361 96-96h-64c0 18.080-13.92 32-32 32s-32-13.92-32-32v-64c0-18.080 13.92-32 32-32s32 13.92 32 32h64c0-52.639-43.361-96-96-96s-96 43.361-96 96v64c0 52.639 43.361 96 96 96z" />
<glyph unicode="&#xf1aa;" glyph-name="credit-card" d="M160 736h576c52.639 0 96-43.361 96-96v-32h32c52.639 0 96-43.361 96-96v-384c0-52.639-43.361-96-96-96h-576c-52.639 0-96 43.361-96 96v32h-32c-52.639 0-96 43.361-96 96v384c0 52.639 43.361 96 96 96zM160 672c-18.080 0-32-13.92-32-32v-384c0-18.080 13.92-32 32-32h576c18.080 0 32 13.92 32 32v288h-608v64h608v32c0 18.080-13.92 32-32 32h-576zM832 544v-64h64v32c0 18.080-13.92 32-32 32h-32zM832 416v-160c0-52.639-43.361-96-96-96h-480v-32c0-18.080 13.92-32 32-32h576c18.080 0 32 13.92 32 32v288h-64z" />
<glyph unicode="&#xf1ab;" glyph-name="crop" d="M256 768h64v-530l338 338h-306v64h370l119 119 46-46-119-119v-370h-64v306l-338-338h530v-64h-128v-128h-64v128h-448v448h-128v64h128v128z" />
<glyph unicode="&#xf1ac;" glyph-name="crosshairs" d="M480 800h64v-66c168.562-15.273 302.726-149.438 318-318h66v-64h-66c-15.273-168.562-149.438-302.726-318-318v-66h-64v66c-168.562 15.273-302.726 149.438-318 318h-66v64h66c15.273 168.562 149.438 302.726 318 318v66zM480 671c-134.176-14.508-240.492-120.824-255-255h63v-64h-63c14.508-134.176 120.824-240.492 255-255v63h64v-63c134.176 14.508 240.492 120.824 255 255h-63v64h63c-14.508 134.176-120.824 240.492-255 255v-63h-64v63z" />
<glyph unicode="&#xf1ad;" glyph-name="css3" d="M263 736h608l-7-38-98-549-4-18-16-6-293-123-13-5-13 6-272 133 5 24 22 122 4 26h156l-7-37-7-39 131-72 167 77 23 130h-452l7 37 16 92 5 26h452l10 58h-452l7 38 16 92zM316 672l-4-28h452l-7-37-22-122-4-27h-453l-4-27h452l-7-38-33-183-3-17-15-7-212-98-14 8-185 102 8 46h-25l-13-72 214-104 265 109 88 495h-478z" />
<glyph unicode="&#xf1ae;" glyph-name="cube" d="M512 755l13-6 320-144 19-8v-406l-16-9-336-187-16 9-336 187v406l19 8 320 144zM512 685l-246-110 246-123 246 123zM224 524v-295l256-142v309zM800 524l-256-128v-309l256 142v295z" />
<glyph unicode="&#xf1af;" glyph-name="cubes" d="M512 768l12-5 212-85v-215l173-75 19-9v-258l-16-10-192-107-15-8-15 7-178 89-178-89-15-7-15 8-192 107-16 10v258l19 9 173 75v215l212 85zM512 698l-105-41 105-41 105 41zM352 610v-148l128-57v156zM672 610l-128-49v-156l128 57v148zM320 406l-116-50 116-58 116 57zM704 406l-80-35-36-16 116-57 116 58zM160 307v-149l128-72v157zM864 307l-128-64v-157l128 72v149zM480 305l-128-62v-159l128 64v157zM544 305v-157l128-64v159z" />
<glyph unicode="&#xf1b0;" glyph-name="cut" d="M192 704c70.312 0 128-57.688 128-128 0-15.793-3.691-30.992-9-45l194-110 327 187h128l-649-371c5.309-14.008 9-29.207 9-45 0-70.312-57.688-128-128-128s-128 57.688-128 128 57.688 128 128 128c31.396 0 59.65-12.008 82-31l165 94-167 95c-22.111-18.166-49.373-30-80-30-70.312 0-128 57.688-128 128s57.688 128 128 128zM192 640c-31.26 0-57.1-21.654-63-51-0.844-4.191-1-8.535-1-13 0-35.725 28.275-64 64-64s64 28.275 64 64-28.275 64-64 64zM611 358l349-198h-128l-285 163zM192 256c-31.26 0-57.1-21.654-63-51-0.844-4.191-1-8.535-1-13 0-35.725 28.275-64 64-64s64 28.275 64 64-28.275 64-64 64z" />
<glyph unicode="&#xf1b1;" glyph-name="cutlery" d="M717 768l45-45-147-147c-13.92-13.92-14.205-29.977-1-44l170 169 45-45-169-170c14.023-13.205 30.080-12.92 44 1l147 147 45-45-144-144-3-4c-36.352-36.352-95.936-36.244-133-1l-1 1h-1l-56-57 37-38 292-291-46-46-269 269-57-57-22-23-23 23-38 37-249-249-46 46 249 249-201 201c-56.652 56.652-56.652 149.348 0 206l23 22 23-22 281-281 57 56c-36.914 36.914-36.914 98.086 0 135zM217 633c-10.4-28.322-9.703-58.297 14-82l262-262 34 34z" />
<glyph unicode="&#xf1b2;" glyph-name="dashboard" d="M512 768c211.7 0 384-172.301 384-384s-172.301-384-384-384-384 172.301-384 384 172.301 384 384 384zM512 704c-177.109 0-320-142.891-320-320s142.891-320 320-320 320 142.891 320 320-142.891 320-320 320zM512 672c17.674 0 32-14.326 32-32s-14.326-32-32-32-32 14.326-32 32 14.326 32 32 32zM331 597c17.674 0 32-14.326 32-32s-14.326-32-32-32-32 14.326-32 32 14.326 32 32 32zM670 587l46-45-142-142c1.314-5.111 2-10.477 2-16 0-35.346-28.654-64-64-64s-64 28.654-64 64 28.654 64 64 64c5.523 0 10.887-0.686 16-2zM256 416c17.674 0 32-14.326 32-32s-14.326-32-32-32-32 14.326-32 32 14.326 32 32 32zM768 416c17.674 0 32-14.326 32-32s-14.326-32-32-32-32 14.326-32 32 14.326 32 32 32zM331 235c17.674 0 32-14.326 32-32s-14.326-32-32-32-32 14.326-32 32 14.326 32 32 32zM693 235c17.674 0 32-14.326 32-32s-14.326-32-32-32-32 14.326-32 32 14.326 32 32 32z" />
<glyph unicode="&#xf1b3;" glyph-name="dashcube" d="M752 800h48v-608c0-87.984-72.016-160-160-160h-320c-87.984 0-160 72.016-160 160v320c0 87.984 72.016 160 160 160h303l119 119zM736 694l-86-86h-330c-53.391 0-96-42.609-96-96v-320c0-53.391 42.609-96 96-96h320c53.391 0 96 42.609 96 96v502zM384 512h192c34.979 0 64-29.021 64-64v-178l23-23 54-55h-333c-34.979 0-64 29.021-64 64v192c0 34.979 29.021 64 64 64zM384 448v-192h192v192h-192z" />
<glyph unicode="&#xf1b4;" glyph-name="database" d="M160 768h640v-768h-640v768zM224 704v-160h512v160h-512zM224 480v-192h512v192h-512zM224 224v-160h512v160h-512z" />
<glyph unicode="&#xf1b5;" glyph-name="dedent" d="M96 672h832v-64h-832v64zM96 544h608v-64h-608v64zM928 544v-320l-160 160zM96 416h608v-64h-608v64zM96 288h608v-64h-608v64zM96 160h832v-64h-832v64z" />
<glyph unicode="&#xf1b6;" glyph-name="delicious" d="M320 736h384c87.984 0 160-72.016 160-160v-384c0-87.984-72.016-160-160-160h-384c-87.984 0-160 72.016-160 160v384c0 87.984 72.016 160 160 160zM320 672c-53.391 0-96-42.609-96-96v-192h288v-288h192c53.391 0 96 42.609 96 96v192h-288v288h-192z" />
<glyph unicode="&#xf1b7;" glyph-name="desktop" d="M64 704h896v-576h-416v-64h160v-64h-384v64h160v64h-416v576zM128 640v-448h768v448h-768z" />
<glyph unicode="&#xf1b8;" glyph-name="deviantart" d="M588 768h174v-168l-4-7-111-212h115v-240h-237l-5-3-57-108-2-4-3-4-13-12-9-10h-174v168l4 7 111 212h-115v240h237l5 3 57 108 2 4 3 4 13 12zM615 704l-58-111-4-7-7-5-19-12-8-6h-193v-112h102l9-11 11-13 13-17-10-18-125-239v-89h83l58 111 4 7 6 5 19 12 9 6h193v112h-102l-9 11-11 13-13 16 9 19 126 239v89h-83z" />
<glyph unicode="&#xf1b9;" glyph-name="diamond" d="M305 704h414l170-204 16-19-16-21-377-480-25 32-352 448-16 21 16 19 160 192zM335 640l-107-128h138l86 128h-117zM572 640l86-128h138l-107 128h-117zM512 613l-68-101h136zM225 448l211-269-76 269h-135zM426 448l86-298 85 298h-171zM664 448l-76-268 211 268h-135z" />
<glyph unicode="&#xf1ba;" glyph-name="digg" d="M304.64 672.384c0 12.99 11.52 12.703 11.52 12.703h90.080s-0.064-50.783-0.064-62.688c0-12.992-11.488-12.705-11.488-12.705h-90.047v62.689zM304.672 542.304c0 12.959 11.52 12.672 11.52 12.639h90.016s-0.063-336.16-0.063-338.784c0-12.961-11.488-12.672-11.488-12.672h-89.984v338.816zM172.416 672.384c0 12.99 11.52 12.703 11.52 12.703h90.080s-0.064-456.958-0.064-468.864c0-12.992-11.486-12.705-11.486-12.705h-262.464v338.752c0 12.992 11.488 12.705 11.488 12.705h160.928v117.408zM172.48 291.68v188h-61.441s-11.52 0.32-11.52-12.703v-188h61.441s11.52-0.32 11.52 12.703zM441.088 542.272c0 12.992 11.52 12.705 11.52 12.672l262.53-0.191s-0.064-447.232-0.064-459.136c0-12.99-11.52-12.703-11.52-12.703h-262.464v62.688c0 12.992 11.488 12.705 11.488 12.705h160.928v45.215h-172.416v338.752zM540.608 466.944h0.033v-188h61.439s11.52-0.318 11.52 12.705v188h-61.471s-11.521 0.32-11.521-12.705zM761.472 554.976l262.528-0.193s-0.064-447.264-0.064-459.168c0-12.99-11.488-12.703-11.488-12.703h-262.462v62.688c0 12.992 11.488 12.705 11.488 12.705h160.928v45.215h-172.416v338.752c0 12.992 11.488 12.705 11.488 12.705zM922.464 291.68h0.031v188h-61.473s-11.52 0.32-11.52-12.703v-188h61.439s11.521-0.32 11.521 12.703z" />
<glyph unicode="&#xf1bb;" glyph-name="dollar" d="M480 800h64v-67c90.709-15.195 160-94.127 160-189v-32h-64v32c0 71.053-56.947 128-128 128-70.875 0-128-57.83-128-128 0-39.006 13.418-59.375 38-79s61.99-35 102-51 82.58-32.609 118-61 62-72.025 62-129c0-93.607-69.053-173.586-160-189v-67h-64v67c-90.709 15.195-160 94.127-160 189v32h64v-32c0-71.053 56.947-128 128-128 70.627 0 128 59.061 128 128 0 39.234-13.42 59.297-38 79s-62.010 36.008-102 52-82.582 31.725-118 60-62 72.184-62 129c0 94.342 69.191 173.713 160 189v67z" />
<glyph unicode="&#xf1bc;" glyph-name="dot-circle-o" d="M512 768c211.7 0 384-172.301 384-384s-172.301-384-384-384-384 172.301-384 384 172.301 384 384 384zM512 704c-177.109 0-320-142.891-320-320s142.891-320 320-320 320 142.891 320 320-142.891 320-320 320zM512 480c53.020 0 96-42.98 96-96s-42.98-96-96-96-96 42.98-96 96 42.98 96 96 96z" />
<glyph unicode="&#xf1bd;" glyph-name="download" d="M480 768h64v-530l169 169 46-46-224-224-23-22-23 22-224 224 46 46 169-169v530zM224 64h576v-64h-576v64z" />
<glyph unicode="&#xf1be;" glyph-name="dribbble" d="M512 768c211.7 0 384-172.301 384-384s-172.301-384-384-384-384 172.301-384 384 172.301 384 384 384zM512 704c-25.078 0-49.602-2.578-73-8 29.404-39.443 73.725-102.389 119-186 66.836 24.619 110.615 56.488 138 83 12.898 12.486 20.965 22.652 27 31-56.312 49.475-129.912 80-211 80zM376 674c-89.291-41.719-155.797-123.16-177-222 47.525 0.086 166.861 4.443 297 39-47.025 84.928-93.785 148.648-120 183zM767 577c-7.408-9.354-15.959-19.311-27-30-32.324-31.295-81.219-67.496-153-95 8.338-17.129 17.018-34.73 25-53 34.473 4.107 66.6 6.17 95 6 54.471-0.324 96.453-6.662 125-13-1.693 69.508-25.959 133.359-65 185zM525 433c-152.207-42.52-289.778-45.438-333-45-0.016-1.332 0-2.664 0-4 0-80.059 29.645-152.963 78-209 41.959 58.092 140.295 174.131 277 212-7.148 15.83-14.59 31.090-22 46zM707 342c-20.869-0.023-44.803-1.52-70-4 25.299-66.752 46.195-139.475 59-216 67.965 47.682 116.104 120.779 131 206-23.336 5.955-62.867 14.063-120 14zM572 327c-125.451-32.213-222.16-151.982-255-197 53.906-41.34 121.609-66 195-66 44.277 0 86.697 8.836 125 25-12.148 84.883-36.305 164.941-65 238z" />
<glyph unicode="&#xf1bf;" glyph-name="dropbox" d="M377 753l18-16 117-101 123 101 18 15 20-12 246-156-35-28-106-87 141-120-39-23-116-69v-107l-14-10-220-143-18-12-18 12-234 154v107l-116 68-42 24 39 29 112 85-149 113 39 25 214 138zM659 674l-91-75 157-91 85 69zM371 673l-156-100 93-71 151 96zM512 556l-145-93 145-91 154 96zM725 430l-157-98 87-66 56 33c2.002 1.709 5.586 3.949 8 5l90 54zM308 425l-91-68 155-91 84 66zM513 294l-119-92-17-13-19 11-34 20v-34l188-124 188 123v34l-49-30-18 13z" />
<glyph unicode="&#xf1c0;" glyph-name="drupal" d="M465 807l42-63s12.447-19.586 30-40 43.275-38.406 46-39c160.453-32.857 281-175.242 281-345 0-194.029-157.971-352-352-352s-352 157.971-352 352c0 155.992 101.957 288.006 243 334v1c8.563 3.223 23.969 21.109 33 41s13 38 13 38zM490 661c-12.059-25.023-29.799-53.125-64-66h-1l-1-1c-116.135-37.033-200-145.16-200-274 0-159.443 128.557-288 288-288 109.617 0 204.318 61.211 253 151-16.287-23.744-26.023-32.344-45-31-24.416 2.049-73.801 77.625-105 79-39.328 1.344-124.863-82-192-82-40.703 0-52.432 6.199-66 15-20.32 14.24-30.672 36.176-30 66 0.672 52.896 49.6 102.297 112 103 79.359 0.672 135-78.703 175-78 33.92 0.672 99.096 67 131 67 33.92 0 43-34.977 43-56 0-14.607-3.539-37.482-11-58 14.543 34.475 23 72.139 23 112 0 139.49-98.869 255.146-230 282-37.396 8.15-59.703 35.348-80 59zM586 184c4.324 0.428 8.576 0 14 0 10.848 0 21.84-0.561 30-6 8.129-5.439 13.313-18.217 16-25 2.721-6.783-0.561-10.279-6-13-4.736-2.721-5.264-1.801-10 7-4.736 8.832-9.287 18-33 18-23.744 0-30.48-8.496-42-18s-15.904-12.439-20-7c-4.064 5.439-2.455 11.217 5 18s19.48 17.264 31 22c5.793 2.385 10.676 3.572 15 4zM656 111c3.375 0.727 4.496-1.961 5-4 0.672-2.721 2.768-6.264-2-11-3.393-3.393-35.393-25.607-72-29-36.641-3.393-86.176-5.137-116 22-4.736 4.736-3.393 11.279 0 14s6.936 5 11 5 2.984 0.344 5-1c13.568-10.848 33.607-20 77-20s74.432 11.855 88 22c1.527 1.184 2.875 1.758 4 2z" />
<glyph unicode="&#xf1c1;" glyph-name="edit" d="M800 767c24.484 0 48.543-9.543 67-28 36.914-36.914 36.914-97.086 0-134l-323-324-10-2-112-22-47-10 10 47 22 112 2 10 7 7 317 316c18.457 18.457 42.516 28 67 28zM800 705c-7.516 0-14.857-3.857-22-11l-310-310-11-55 55 11 310 310c14.287 14.287 14.287 29.713 0 44-7.143 7.143-14.484 11-22 11zM128 640h422l-64-64h-294v-512h512v294l64 64v-422h-640v640z" />
<glyph unicode="&#xf1c2;" glyph-name="eject" d="M512 685l23-22 288-288 54-55h-730l54 55 288 288zM512 594l-210-210h420zM128 192h768v-64h-768v64z" />
<glyph unicode="&#xf1c3;" glyph-name="ellipsis-h" d="M192 448c35.346 0 64-28.654 64-64s-28.654-64-64-64-64 28.654-64 64 28.654 64 64 64zM512 448c35.346 0 64-28.654 64-64s-28.654-64-64-64-64 28.654-64 64 28.654 64 64 64zM832 448c35.346 0 64-28.654 64-64s-28.654-64-64-64-64 28.654-64 64 28.654 64 64 64z" />
<glyph unicode="&#xf1c4;" glyph-name="ellipsis-v" d="M512 704c35.346 0 64-28.654 64-64s-28.654-64-64-64-64 28.654-64 64 28.654 64 64 64zM512 448c35.346 0 64-28.654 64-64s-28.654-64-64-64-64 28.654-64 64 28.654 64 64 64zM512 192c35.346 0 64-28.654 64-64s-28.654-64-64-64-64 28.654-64 64 28.654 64 64 64z" />
<glyph unicode="&#xf1c5;" glyph-name="empire" d="M882.976 483.424v0c8.479-31.711 13.023-65.023 13.023-99.424 0-34.432-4.576-67.809-13.088-99.553-17.664-66.047-52.48-125.088-99.424-172-46.943-46.975-106.049-81.791-172.16-99.455-31.68-8.447-64.961-12.992-99.328-12.992s-67.713 4.545-99.393 12.992c-66.143 17.695-125.279 52.576-172.256 99.615-46.943 46.977-81.729 106.049-99.359 172.129-8.447 31.68-12.992 64.928-12.992 99.264 0 34.367 4.545 67.68 12.992 99.393 17.664 66.080 52.48 125.119 99.393 172.062 46.975 46.977 106.047 81.857 172.16 99.521 31.742 8.479 65.055 13.023 99.455 13.023 34.336 0 67.615-4.545 99.297-13.023 66.143-17.664 125.279-52.512 172.256-99.488 46.943-46.943 81.76-105.984 99.424-172.064zM525.024 725.056h-0.031v-15.969c24.48-0.959 48.287-4.641 71.072-10.721l-10.496-39.168c49.057-13.119 92.928-38.975 127.775-73.824l28.672 28.674c16.256-16.289 30.816-34.273 43.361-53.697l13.887 8c-13.248 20.609-28.703 39.713-45.951 56.961-41.76 41.76-94.305 72.768-153.088 88.447-24.096 6.432-49.281 10.305-75.201 11.297zM627.2 384v0c0 10.336-1.375 20.32-3.936 29.889l117.984 31.615c-10.912 40.801-32.416 77.312-61.408 106.336l-86.367-86.367c-14.113 14.111-31.873 24.576-51.744 29.855l31.615 117.984c-19.584 5.215-40.127 8.031-61.344 8.031-21.279 0-41.855-2.848-61.473-8.096l31.617-117.984c-19.84-5.313-37.6-15.775-51.68-29.889l-86.369 86.369c-28.992-29.023-50.463-65.504-61.375-106.336l117.982-31.615c-2.527-9.506-3.902-19.488-3.902-29.793 0-10.271 1.344-20.191 3.871-29.664l-117.984-31.615c10.881-40.832 32.352-77.377 61.344-106.4l86.369 86.367c14.111-14.176 31.871-24.672 51.775-29.984l-31.615-117.982c19.615-5.217 40.191-8.064 61.439-8.064s41.793 2.848 61.377 8.064l-31.617 117.982c19.84 5.313 37.568 15.744 51.68 29.824l86.369-86.367c28.992 28.959 50.463 65.439 61.408 106.24l-117.984 31.615c2.561 9.568 3.967 19.617 3.967 29.984zM270.592 625.248v0c-17.248-17.248-32.672-36.287-45.889-56.896l13.889-8c12.512 19.393 27.041 37.377 43.297 53.633l28.639-28.672c34.816 34.848 78.656 60.703 127.68 73.824l-10.494 39.168c21.023 5.6 42.848 9.184 65.311 10.463v16.033c-23.871-1.313-47.104-5.088-69.439-11.072-58.752-15.713-111.264-46.721-152.992-88.48zM208.672 227.36v0l13.855 8c-10.496 20.354-18.879 41.984-24.895 64.576l39.168 10.496c-6.24 23.457-9.602 48.129-9.602 73.568 0 25.504 3.361 50.207 9.664 73.729l-39.168 10.496c6.018 22.559 14.369 44.127 24.832 64.447l-13.855 8c-11.168-21.535-20.031-44.416-26.432-68.32-7.52-28.191-11.584-57.791-11.584-88.352 0-30.496 4.031-60.064 11.551-88.191 6.4-23.938 15.297-46.881 26.465-68.449zM493.024 43.199v0 16.033c-22.432 1.279-44.256 4.863-65.248 10.463l10.496 39.168c-49.088 13.121-92.959 39.041-127.807 73.92l-28.672-28.672c-16.225 16.256-30.721 34.209-43.232 53.568l-13.889-8c13.217-20.576 28.607-39.615 45.824-56.832 41.76-41.824 94.305-72.863 153.119-88.576 22.336-5.984 45.537-9.76 69.408-11.072zM753.312 142.656v0c17.279 17.279 32.736 36.352 45.984 56.959l-13.889 8.033c-12.545-19.424-27.104-37.441-43.393-53.729l-28.672 28.672c-34.848-34.848-78.688-60.672-127.711-73.76l10.496-39.168c-22.816-6.080-46.594-9.76-71.105-10.721v-16c25.953 0.961 51.137 4.865 75.264 11.297 58.752 15.711 111.266 46.656 153.025 88.416zM815.328 227.36v0c11.104 21.473 20 44.289 26.367 68.129 7.553 28.256 11.617 57.887 11.617 88.512 0 30.561-4.033 60.191-11.584 88.385-6.369 23.902-15.264 46.752-26.4 68.287l-13.855-8c10.432-20.32 18.814-41.889 24.832-64.416l-39.168-10.496c6.303-23.52 9.664-48.256 9.664-73.76 0-25.568-3.393-50.305-9.697-73.889l39.168-10.496c-6.016-22.463-14.367-43.967-24.799-64.256z" />
<glyph unicode="&#xf1c6;" glyph-name="envelope" d="M96 640h832v-576h-832v576zM234 576l278-185 278 185h-556zM160 548v-420h704v420l-334-223-18-11-18 11z" />
<glyph unicode="&#xf1c7;" glyph-name="envelope-o" d="M96 640h832v-576h-832v576zM234 576l278-185 278 185h-556zM160 548v-420h704v420l-334-223-18-11-18 11z" />
<glyph unicode="&#xf1c8;" glyph-name="envelope-square" d="M160 736h704v-704h-704v704zM224 672v-576h576v576h-576zM288 576h448v-384h-448v384zM378 512l134-89 134 89h-268zM352 452v-196h320v196l-142-95-18-11-18 11z" />
<glyph unicode="&#xf1c9;" glyph-name="eraser" d="M605 765c25.783-0.041 50.6-9.6 70-29l192-192c38.799-38.799 37.533-103.467-3-144l-372-372v-1c-41.115-36.547-104.201-36.799-143 2l-192 192h-1l-1 1c-36.547 41.115-36.799 104.201 2 143l375 372v1c20.559 18.273 47.217 27.041 73 27zM604 700c-9.795-0.039-19.906-2.287-28-9l-1-1-162-161 245-245 161 161c17.066 17.066 15.4 41.6 3 54l-192 192c-6.201 6.201-15.783 9.041-26 9zM367 483l-165-163c-11.969-11.969-13.1-37.449 0-54 0.473-0.596 0.49-1.428 1-2l191-190c12.143-12.143 37.465-13.715 54 0 0.352 0.291 0.658 0.695 1 1l163 163z" />
<glyph unicode="&#xf1ca;" glyph-name="eur" d="M576 768c86.674 0 165.424-41.709 222-107l-49-42c-46.463 53.621-106.713 85-173 85-112.072 0-210.832-92.721-244-224h276v-64h-287c-0.846-10.605-1-21.076-1-32s0.154-21.395 1-32h287v-64h-276c33.168-131.279 131.928-224 244-224 66.287 0 126.537 31.379 173 85l49-42c-56.576-65.291-135.326-107-222-107-151.613 0-274.782 124.395-310 288h-74v64h66c-0.723 10.508-2 21.299-2 32s1.277 21.492 2 32h-66v64h74c35.219 163.605 158.387 288 310 288z" />
<glyph unicode="&#xf1cb;" glyph-name="euro" d="M576 768c86.674 0 165.424-41.709 222-107l-49-42c-46.463 53.621-106.713 85-173 85-112.072 0-210.832-92.721-244-224h276v-64h-287c-0.846-10.605-1-21.076-1-32s0.154-21.395 1-32h287v-64h-276c33.168-131.279 131.928-224 244-224 66.287 0 126.537 31.379 173 85l49-42c-56.576-65.291-135.326-107-222-107-151.613 0-274.782 124.395-310 288h-74v64h66c-0.723 10.508-2 21.299-2 32s1.277 21.492 2 32h-66v64h74c35.219 163.605 158.387 288 310 288z" />
<glyph unicode="&#xf1cc;" glyph-name="exchange" d="M838 951l215-215-215-215-45 46 137 137h-674v64h674l-137 137zM442 503l45-46-137-137h674v-64h-674l137-137-45-46-215 215 23 23z" />
<glyph unicode="&#xf1cd;" glyph-name="exclamation" d="M416 768h192v-512h-192v512zM480 704v-384h64v384h-64zM416 192h192v-192h-192v192zM480 128v-64h64v64h-64z" />
<glyph unicode="&#xf1ce;" glyph-name="exclamation-circle" d="M512 768c211.7 0 384-172.301 384-384s-172.301-384-384-384-384 172.301-384 384 172.301 384 384 384zM512 704c-177.109 0-320-142.891-320-320s142.891-320 320-320 320 142.891 320 320-142.891 320-320 320zM480 576h64v-256h-64v256zM480 256h64v-64h-64v64z" />
<glyph unicode="&#xf1cf;" glyph-name="exclamation-triangle" d="M512 793l28-48 384-665 27-48h-878l27 48 384 665zM512 665l-328-569h656zM480 448h64v-192h-64v192zM480 224h64v-64h-64v64z" />
<glyph unicode="&#xf1d0;" glyph-name="expand" d="M448 736h416v-416h-64v306l-530-530h306v-64h-416v416h64v-306l530 530h-306v64z" />
</font>
</defs>
</svg>
